<?xml version="1.0" standalone="no"?>
<!DOCTYPE svg PUBLIC "-//W3C//DTD SVG 1.1//EN" "http://www.w3.org/Graphics/SVG/1.1/DTD/svg11.dtd" >
<svg xmlns="http://www.w3.org/2000/svg">
  <metadata>Created by iconfont</metadata>
  <defs>
  <font id="iconfont" horiz-adv-x="1024">
    <font-face
      font-family="iconfont"
      font-weight="400"
      font-stretch="normal"
      units-per-em="1024"
      ascent="896"
      descent="-128"
    />
      <missing-glyph />
      
      <glyph glyph-name="zanting" unicode="&#58985;" d="M512 805.875C279.96875 805.875 90.125 616.03125 90.125 384s189.84375-421.875 421.875-421.875 421.875 189.84375 421.875 421.875S744.03125 805.875 512 805.875zM464.539063 209.976563c0-15.820313-15.820313-26.367188-36.914063-26.367188-21.09375 0-36.914063 10.546875-36.914063 26.367188L390.710938 558.023438c0 15.820313 15.820313 26.367188 36.914062 26.367187 21.09375 0 36.914063-10.546875 36.914063-26.367188L464.539063 209.976563zM638.5625 209.976563c0-15.820313-15.820313-26.367188-36.914063-26.367188-21.09375 0-36.914063 10.546875-36.914062 26.367188L564.734375 558.023438c0 15.820313 15.820313 26.367188 36.914063 26.367187 21.09375 0 36.914063-10.546875 36.914062-26.367188L638.5625 209.976563z"  horiz-adv-x="1024" />
      
      <glyph glyph-name="xiangqing" unicode="&#58954;" d="M346.855654 8.905126M512 817.162813c-239.257373 0-433.217388-193.960015-433.217388-433.217388s193.960015-433.217388 433.217388-433.217388c239.257373 0 433.108238 193.960015 433.108238 433.217388S751.257373 817.162813 512 817.162813zM706.942367 167.391306L317.057633 167.391306 317.057633 600.608694l389.884734 0L706.942367 167.391306zM382.002038 492.331634l259.886773 0 0-43.332654-259.886773 0 0 43.332654ZM382.002038 405.666326l259.886773 0 0-43.332653-259.886773 0 0 43.332653ZM382.002038 319.00102l259.886773 0 0-43.332654-259.886773 0 0 43.332654Z"  horiz-adv-x="1024" />
      
      <glyph glyph-name="zz" unicode="&#59296;" d="M92 384A420 420 0 1 0 932 384a420 420 0 0 0-840 0zM743 549l-66 66-396-396 66-66 396 396z"  horiz-adv-x="1024" />
      
      <glyph glyph-name="xq" unicode="&#58930;" d="M512 805.875C745.01 805.875 933.875 617.01 933.875 384S745.01-37.875 512-37.875 90.125 150.99 90.125 384 278.99 805.875 512 805.875zM360.125 299.625v-33.75a16.875 16.875 0 0 0 0 33.75z m0-67.5a67.5 67.5 0 0 1 67.5-67.5h236.25a67.5 67.5 0 0 1 67.5 67.5V535.875a67.5 67.5 0 0 1-67.5 67.5h-236.25a67.5 67.5 0 0 1-67.5-67.5 50.625 50.625 0 0 1 0-101.25 50.625 50.625 0 0 1 0-101.25 50.625 50.625 0 0 1 0-101.25z m0 168.75v-33.75a16.875 16.875 0 0 0 0 33.75z m0 67.5a16.875 16.875 0 0 0 0 33.75v-33.75z m84.375 33.75h202.5a16.875 16.875 0 0 0 0-33.75h-202.5a16.875 16.875 0 0 0 0 33.75z m0-101.25h202.5a16.875 16.875 0 0 0 0-33.75h-202.5a16.875 16.875 0 0 0 0 33.75z m0-101.25h202.5a16.875 16.875 0 0 0 0-33.75h-202.5a16.875 16.875 0 0 0 0 33.75z"  horiz-adv-x="1024" />
      
      <glyph glyph-name="jixu" unicode="&#59136;" d="M512 805.875C279.002656 805.875 90.125 616.997344 90.125 384s188.877656-421.875 421.875-421.875c232.993125 0 421.875 188.877656 421.875 421.875S744.997344 805.875 512 805.875zM393.955156 243.473438c0-21.389063-17.82-38.740781-39.787031-38.740782-21.979688 0-39.787031 17.3475-39.787031 38.740782V524.535c0 21.376406 17.807344 38.723906 39.787031 38.723906 21.967031 0 39.787031-17.343281 39.787031-38.723906v-281.061562z m365.263594 127.081406l-252.871875-159.814688a15.824531 15.824531 0 0 0-24.240938 13.365V543.831563a15.795 15.795 0 0 0 24.245157 13.343906l252.859218-159.869531a15.849844 15.849844 0 0 0 0.008438-26.751094z"  horiz-adv-x="1024" />
      
      <glyph glyph-name="weibd" unicode="&#59101;" d="M349.35752 482.35752l68.14248-68.14336-184.82168-184.82168A99.51416 99.51416 0 1 1 373.46416 88.608398l40.17832 40.178321 68.14336-68.14336-40.17832-40.17832a195.943359 195.943359 0 0 0-277.07168 277.07168l184.82168 184.821679z m340.26416-197.87168l-68.20752 68.14248 184.82168 184.886719a99.51416 99.51416 0 1 1-140.78584 140.720801l-40.11416-40.17832-68.20752 68.14248 40.1792 40.24248a195.943359 195.943359 0 1 0 277.0708-277.13496l-184.693359-184.82168z m-306.19336 458.22832l92.57168 27 196.71416-771.42832-92.57168-27-196.71416 771.42832z"  horiz-adv-x="1024" />
      
      <glyph glyph-name="wbd" unicode="&#59244;" d="M473.28125 109.78125H362.375C212.5625 109.78125 90.96875 231.28125 90.96875 381.1875s121.5 271.40625 271.40625 271.40625v-136.875C288.21875 515.71875 227.9375 455.34375 227.9375 381.1875s60.28125-134.53125 134.4375-134.53125h110.8125v-136.875zM705.40625 109.78125v136.875c38.4375 0 54.1875 15.75 63.46875 29.53125 15.5625 22.875 24.1875 60.1875 24.1875 105 0 74.15625-60.375 134.53125-134.53125 134.53125H616.0625v136.875h42.46875c149.8125 0.09375 271.3125-121.3125 271.3125-271.125v-0.28125c0-74.15625-16.125-135.375-47.90625-182.0625-19.40625-28.40625-44.15625-50.625-73.59375-65.8125-30.1875-15.5625-64.875-23.53125-102.9375-23.53125zM794.84375-32.34375c-21.84375 0-42.375 10.3125-55.21875 27.9375L224.375 697.6875c-22.40625 30.46875-15.75 73.3125 14.71875 95.625s73.3125 15.75 95.625-14.71875l515.15625-702c22.40625-30.46875 15.84375-73.3125-14.625-95.625-11.71875-8.625-25.875-13.3125-40.40625-13.3125z"  horiz-adv-x="1024" />
      
      <glyph glyph-name="dingwei" unicode="&#59648;" d="M960 416h-65.6C879.2 602.4 730.4 751.2 544 766.4V832h-64v-65.6C293.6 751.2 144.8 602.4 129.6 416H64v-64h65.6c15.2-186.4 164-335.2 350.4-350.4v-65.6h64v65.6c186.4 15.2 335.2 164 350.4 350.4h65.6v64z m-448-352c-176.8 0-320 143.2-320 320s143.2 320 320 320 320-143.2 320-320-143.2-320-320-320z m128 320c0-70.4-57.6-128-128-128s-128 57.6-128 128 57.6 128 128 128 128-57.6 128-128z"  horiz-adv-x="1024" />
      
      <glyph glyph-name="jia1" unicode="&#58957;" d="M441.6875 454.3125H160.613282A70.382813 70.382813 0 0 1 90.125 384c0-39.09375 31.570313-70.3125 70.488282-70.3125H441.6875v-281.074218c0-38.953125 31.464844-70.488282 70.3125-70.488282 39.09375 0 70.3125 31.570313 70.3125 70.488282V313.6875h281.074218A70.382813 70.382813 0 0 1 933.875 384c0 39.09375-31.570313 70.3125-70.488282 70.3125H582.3125V735.386718A70.382813 70.382813 0 0 1 512 805.875c-39.09375 0-70.3125-31.570313-70.3125-70.488282V454.3125z"  horiz-adv-x="1024" />
      
      <glyph glyph-name="luxian" unicode="&#59328;" d="M431.082727 841.472565L133.269883 472.063124h233.396621v-545.535689h174.710884V470.647762h200.429046L483.002343 841.472565zM890.730117 271.599557s-217.655034 7.491061-349.352729-254.868694v236.261864s196.148439 207.643938 349.352729 160.384661v-141.777831z"  horiz-adv-x="1024" />
      
      <glyph glyph-name="jian" unicode="&#58948;" d="M860.54126 457.086548H163.45874C123.248779 457.086548 90.372192 424.209961 90.372192 384c0-40.209961 32.876587-73.086548 73.086548-73.086548h697.08252c40.209961 0 73.086548 32.876587 73.086548 73.086548 0 40.209961-32.876587 73.086548-73.086548 73.086548z"  horiz-adv-x="1024" />
      
      <glyph glyph-name="tuceng" unicode="&#58890;" d="M921.433579 536.157734L532.468631 793.043688c-9.305308 7.343154-20.468631 7.343154-31.637033 0L104.419355 550.840233c-11.163322-7.344425-18.608077-22.019304-20.468631-41.595123 1.859284-14.67742 9.304038-29.358649 20.468631-39.145288l400.13462-251.991364c5.581661-2.444755 11.168402-4.89332 14.88697-4.893319 3.722377 0 11.168402 2.448565 13.027686 4.893319L919.575565 452.973838c11.168402 7.344425 18.608077 22.019304 20.472441 41.593853 0 17.127254-7.446025 34.253239-18.614427 41.590043zM521.304038 308.630429L197.476251 511.694945l316.383033 193.276607 314.522479-210.402591-307.077725-185.938532zM893.177293 282.793498L520.958598 55.266192 135.714758 297.469647c-16.750063 12.231395-37.218694 2.448565-46.524004-19.570739-9.309118-22.019304-1.863094-48.931928 14.88697-61.164593l400.134621-251.991364c5.581661-2.448565 11.163322-4.89332 14.885699-4.893319s11.168402 2.444755 13.027687 4.893319L919.232664 199.608331c16.744983 12.232665 24.191009 39.145288 16.744984 61.164593-3.717297 22.020574-24.191009 31.802134-42.800355 22.020574z"  horiz-adv-x="1024" />
      
      <glyph glyph-name="sousuo1" unicode="&#58895;" d="M747.28417 108.599855l141.845721-141.845722a28.349285 28.349285 0 1 1 40.115976 40.115976l-141.845722 141.845721a28.349285 28.349285 0 0 1-40.115975-40.115975zM880.838594 412.349285a397.187878 397.187878 0 0 0-397.187879-397.187879 397.187878 397.187878 0 0 0-397.187879 397.187879 397.187878 397.187878 0 0 0 397.187879 397.187879 397.187878 397.187878 0 0 0 397.187879-397.187879z m-56.748219 0a340.439661 340.439661 0 1 1-680.928969 0 340.439661 340.439661 0 1 1 680.928969 0z"  horiz-adv-x="1024" />
      
      <glyph glyph-name="guanbi" unicode="&#60576;" d="M556.200391 394.81344l351.163733 351.455004a36.37248 36.37248 0 1 1-51.482168 51.482169l-351.127325-351.455004-351.163733 351.491413a36.37248 36.37248 0 1 1-51.482169-51.482169l351.163733-351.455004-351.163733-351.455005a36.37248 36.37248 0 1 1 51.482169-51.482168l351.163733 351.455004 351.127325-351.455004a36.37248 36.37248 0 1 1 51.482168 51.482168l-351.163733 351.418596z"  horiz-adv-x="1024" />
      
      <glyph glyph-name="xiazai6" unicode="&#58896;" d="M357.267058 384.160155L739.32602 745.656807c13.343626 13.702999 13.343626 36.23404 0 49.937037-13.343626 13.702999-35.015301 13.702999-48.296428 0L284.377107 410.894282c-7.124934-7.390556-10.171781-17.24984-9.656161-26.734127-0.531245-9.812409 2.531227-19.671693 9.656161-27.046624l406.63686-384.699563c13.281127-13.718623 34.968426-13.718623 48.296428 0 13.343626 14.077994 13.343626 36.23404 0 49.937037L357.267058 384.160155"  horiz-adv-x="1024" />
      
      <glyph glyph-name="address" unicode="&#58935;" d="M511.926172 803.249707c-171.169629 0-310.426172-138.907617-310.426172-309.646582 0-22.269727 2.387109-44.512207 7.093652-66.110449 2.136621-9.808594 11.660449-40.120312 12.677344-42.815039 16.679883-43.519043 41.302441-80.622949 72.365625-111.204492l-44.05166 54.521191c3.641309-5.727832 222.219141-326.296582 222.219141-326.296582 8.850586-12.870703 23.495801-21.201855 40.086914-21.201856 0.013184 0 0.025488 0 0.038671 0 0.008789 0 0.021973 0 0.034278 0 16.591992 0 31.238086 8.332031 39.982324 21.040137s231.966211 342.682031 233.017383 344.617383c17.330273 31.275879 29.653418 67.801465 34.777441 106.597266-20.976855-77.739258-7.998926-41.386816-4.478027-25.253614 4.506152 19.857129 7.088379 42.660352 7.088379 66.067383 0 0.014063 0 0.027246 0 0.041309 0 170.737207-139.257422 309.644824-310.426172 309.644824zM780.088379 435.162891c-3.105176-14.228613-14.566992-46.33418-15.469629-48.452344-3.430371-8.05166-13.159863-26.766211-14.128418-28.458106-1.942383-3.396973-228.191309-336.288867-228.191309-336.288867-3.360937-4.93418-8.371582-5.468555-10.371972-5.468554s-7.009277 0.534375-10.367578 5.465039c0 0-218.734277 320.80166-222.186621 326.282519l-0.302344 0.48252c-19.98457 31.416504-33.932812 68.613574-39.247559 108.539648 14.249707-57.538477 5.830664-30.751172 3.946289-22.107129-3.984082 17.542969-6.26748 37.689258-6.26748 58.368164 0 0.026367 0 0.053613 0 0.079981-0.001758 150.88623 123.105762 273.644824 274.424414 273.644824s274.426172-122.758594 274.426172-273.646582c0-19.690137-2.107617-39.354785-6.263965-58.440234zM511.926172 624.848438c-35.129004 0-68.15918-13.645898-93.000586-38.423145-24.858105-24.789551-38.54707-57.754688-38.54707-92.822168 0-9.563379 1.013379-19.061719 3.01289-28.233105 3.191309-14.64873 8.904199-28.576758 16.986621-41.410547 9.73916-15.273633 22.018359-28.016016 36.373536-37.97666l-31.09043 30.231738c12.040137-16.403027 27.910547-29.993555 45.9-39.299414 18.680273-9.664453 38.991797-14.565234 60.368555-14.565235 21.367969 0 41.675098 4.90166 60.359765 14.566993 25.901367 13.649414 46.299023 34.782715 58.674024 60.505664l-12.687012-21.096387c9.762891 13.130859 17.14043 28.665527 21.135937 45.508887-7.855664-25.051465-2.1375-11.106738 1.058203 3.563086 1.9125 8.446289 3.007617 18.145898 3.007618 28.102148 0 0.036914 0 0.072949 0 0.109863 0 35.056934-13.687207 68.020313-38.545313 92.813379-24.851074 24.779004-57.878613 38.42666-93.005859 38.42666zM605.292383 473.061328c-3.476074-15.563672-10.421191-29.148047-20.000391-40.424414 1.081934 0.053613-7.299316-8.660742-17.106152-15.464355l20.990039 20.353711c-8.776758-11.95752-20.339648-21.861035-33.433594-28.638282-13.520215-6.992578-28.260352-10.538965-43.815234-10.538965-15.562793 0-30.308203 3.546387-43.82666 10.538965-13.087793 6.770215-24.643652 16.667578-33.416895 28.62334l-14.511621-10.650586 14.403516 10.796485c-1.299902 1.770996-4.984277 7.507617-5.574903 8.524511-6.787793 11.48291-11.228027 25.105078-12.31084 39.661524 0.486035-6.66123-0.311133 0.400781-0.311132 7.647363 0 0.038672 0 0.077344 0 0.115137 0 25.425879 9.93252 49.33916 27.968554 67.326855 18.04834 18 42.047754 27.912305 67.579102 27.912305 25.52959 0 49.530762-9.914063 67.579101-27.91582 18.037793-17.989453 27.968555-41.900098 27.968555-67.328614 0-6.985547-0.734766-13.896387-2.181445-20.540039z"  horiz-adv-x="1024" />
      
      <glyph glyph-name="jt-b" unicode="&#58889;" d="M849.874489 386.730667a68.266667 68.266667 0 0 0 0-96.483556L512-47.7184 174.125511 290.247111a68.266667 68.266667 0 0 0 96.483556 96.483556L512 145.521778 753.390933 386.730667a68.266667 68.266667 0 0 0 96.483556 0z m0 364.088888a68.266667 68.266667 0 0 0 0-96.483555L512 316.370489 174.125511 654.336a68.266667 68.266667 0 0 0 96.483556 96.483555L512 509.610667 753.390933 750.819555a68.266667 68.266667 0 0 0 96.483556 0z"  horiz-adv-x="1024" />
      
      <glyph glyph-name="jt-t" unicode="&#60604;" d="M174.125511 381.269333a68.266667 68.266667 0 0 0 0 96.483556L512 815.7184 849.874489 477.752889a68.266667 68.266667 0 0 0-96.483556-96.483556L512 622.478222 270.609067 381.269333a68.266667 68.266667 0 0 0-96.483556 0z m0-364.088888a68.266667 68.266667 0 0 0 0 96.483555L512 451.629511 849.874489 113.664a68.266667 68.266667 0 0 0-96.483556-96.483555L512 258.389333 270.609067 17.180445a68.266667 68.266667 0 0 0-96.483556 0z"  horiz-adv-x="1024" />
      
      <glyph glyph-name="xiajiantou" unicode="&#58902;" d="M862.752 569.984H161.248l349.696-371.936L862.72 569.984z"  horiz-adv-x="1024" />
      
      <glyph glyph-name="lixian1" unicode="&#58899;" d="M256.6656 655.9744l-16.64-16.64c-74.24-74.24-74.24-195.072 0-269.312l85.0432-85.0432c4.8128-4.8128 11.3152-7.5264 18.1248-7.5264s13.312 2.7136 18.1248 7.5264l57.088 57.088a25.61536 25.61536 0 0 1 0 36.1984 25.61536 25.61536 0 0 1-36.1984 0l-38.9632-38.9632-67.0208 66.9696c-54.272 54.272-54.272 142.592 0 196.864l16.64 16.64c54.272 54.272 142.592 54.272 196.864 0l66.9696-66.9184-37.7344-37.7344a25.61536 25.61536 0 0 1 0-36.1984 25.61536 25.61536 0 0 1 36.1984 0l55.808 55.808c4.8128 4.8128 7.5264 11.3152 7.5264 18.1248s-2.7136 13.312-7.5264 18.1248l-85.0432 85.0432c-74.24 74.1888-195.0208 74.24-269.2608-0.0512zM662.7328 483.0208l-55.808-55.808a25.61536 25.61536 0 0 1 0-36.1984 25.61536 25.61536 0 0 1 36.1984 0l37.7344 37.7344 66.9696-66.9184c54.272-54.272 54.272-142.592 0-196.864l-16.64-16.64c-54.272-54.272-142.592-54.272-196.864 0l-66.9184 66.9696 38.9632 38.9632a25.61536 25.61536 0 0 1 0 36.1984 25.61536 25.61536 0 0 1-36.1984 0l-57.088-57.088c-4.8128-4.8128-7.4752-11.3152-7.4752-18.1248s2.7136-13.312 7.4752-18.1248l85.0432-85.0432c37.12-37.12 85.8624-55.7056 134.656-55.7056 48.7424 0 97.536 18.5856 134.656 55.7056l16.64 16.64c74.24 74.24 74.24 195.072 0 269.312l-85.0432 85.0432c-10.0864 9.9328-26.3168 9.9328-36.3008-0.0512zM646.656 249.344a25.61536 25.61536 0 0 1 0 36.1984L413.5936 518.656a25.61536 25.61536 0 0 1-36.1984 0 25.61536 25.61536 0 0 1 0-36.1984l233.0624-233.0624a25.5488 25.5488 0 0 1 18.1248-7.5264c6.5024 0 13.056 2.4576 18.0736 7.4752zM686.8992 599.9616l18.5344 69.2736c3.6352 13.6704-4.4544 27.6992-18.1248 31.3856-13.6704 3.6352-27.6992-4.4544-31.3856-18.1248l-18.5344-69.2736c-3.6352-13.6704 4.4544-27.6992 18.1248-31.3856 13.6704-3.6864 27.6992 4.4544 31.3856 18.1248zM797.184 577.4336l-69.2736-18.5344c-13.6704-3.6352-21.76-17.7152-18.1248-31.3856s17.7152-21.76 31.3856-18.1248l69.2736 18.5344c13.6704 3.6352 21.76 17.7152 18.1248 31.3856a25.66144 25.66144 0 0 1-31.3856 18.1248zM282.8288 258.6112l-69.2736-18.5344c-13.6704-3.6352-21.76-17.7152-18.1248-31.3856s17.7152-21.76 31.3856-18.1248l69.2736 18.5344c13.6704 3.6352 21.76 17.7152 18.1248 31.3856a25.68704 25.68704 0 0 1-31.3856 18.1248zM337.1008 168.0384l-18.5344-69.2736c-3.6352-13.6704 4.4544-27.6992 18.1248-31.3856 13.6704-3.6352 27.6992 4.4544 31.3856 18.1248l18.5344 69.2736c3.6352 13.6704-4.4544 27.6992-18.1248 31.3856-13.6704 3.6864-27.6992-4.4544-31.3856-18.1248z"  horiz-adv-x="1024" />
      
      <glyph glyph-name="shouquan" unicode="&#58960;" d="M486.000425 799.003425a46.325553 46.325553 0 0 0 55.78155-0.300472c72.581412-56.135046 205.41609-100.056831 276.919342-123.723337 9.2439-3.093083 17.259406-5.717785 24.19675-8.042017a46.546487 46.546487 0 0 0 31.434565-43.921785l-0.044187-30.347568L519.688522 334.457641 421.734988 451.605967a51.009365 51.009365 0 0 1-70.372067 7.600147 48.738158 48.738158 0 0 1-8.422024-68.710639L473.133197 225.369006a48.941417 48.941417 0 0 1 67.42922-9.129014l333.487419 245.148956c-0.176747-92.765991-0.353496-142.016717-0.486057-147.761015v15.085409c-10.781605-106.242998-88.14404-206.070056-151.331316-257.565477-50.134464-40.93475-117.27205-78.051751-201.395081-111.351004-93.499493 33.405301-165.568338 70.522303-216.215371 111.351004-63.805892 51.495421-142.237651 151.472715-153.028094 257.565477v-15.544952c-3.234482 68.516217-1.687939 246.280142-0.459544 309.529278 0.309308 19.795734 13.406307 37.276074 32.362491 43.303168 140.231566 44.231094 244.86616 90.167801 302.503561 133.002589z"  horiz-adv-x="1024" />
      
      <glyph glyph-name="banben" unicode="&#58901;" d="M918.56 530.4c-0.48 1.92-1.44 3.84-2.4 5.76-1.92 3.84-3.84 8.16-5.28 12.48l-0.48 0.48c-3.36 8.16-6.72 16.32-12 24.96-13.44 24.48-54.24 65.28-123.84 66.24-36-0.48-85.92-10.56-117.6-58.56-1.92-2.4-3.36-4.8-4.32-7.2L509.12 271.68l-140.16 302.4c-9.6 21.12-35.04 30.24-55.68 20.16-21.12-9.6-30.24-34.56-20.64-55.68l146.88-316.32 0.48-0.48c19.2-35.52 43.2-53.76 72.48-53.76 27.84 0.96 50.88 19.68 67.2 55.68L727.52 535.2c0 0.48 0.48 0.48 0.48 0.96 3.84 6.24 13.44 20.64 46.56 20.64h0.48c34.08-0.48 48.96-19.68 50.88-22.56 0.48-1.44 1.44-2.88 2.4-3.84 1.44-1.92 3.36-6.72 5.28-11.52 1.92-4.8 4.32-10.56 7.2-16.32 12.96-39.84 19.68-79.2 19.68-117.12 0-94.56-33.12-174.72-100.32-245.28C688.64 71.52 608 38.4 513.44 38.4c-97.44 0-178.08 33.12-245.76 101.28-69.6 66.72-102.72 147.36-102.72 244.8s33.12 178.08 101.76 246.72c51.84 54.72 120 88.32 196.8 97.44 36.96 2.88 51.84 2.88 94.08 0 4.8-0.48 48.96-6.72 85.44-20.16 10.56-3.84 22.08-3.36 32.16 1.44 10.08 4.8 18.24 12.96 21.6 23.52l0.48 1.92v0.48c3.36 10.08 2.4 20.64-1.92 30.24-4.8 10.08-12.96 17.76-23.52 21.6C626.72 804 572 812.64 562.88 812.64c-46.56 3.36-65.76 3.36-108 0C357.92 800.64 272 758.4 206.72 689.76 121.76 605.28 80.96 505.44 80.96 384.48s41.28-220.8 125.76-305.28C290.24-4.32 392.96-46.56 512-46.56c115.68 0 218.4 42.24 306.24 126.24 83.04 86.88 125.28 189.12 125.28 304.8-0.48 47.52-8.64 96.96-24.96 145.92z m-16.8 15.36z"  horiz-adv-x="1024" />
      
      <glyph glyph-name="qingli-L" unicode="&#58959;" d="M426.688 801.856a32 32 0 0 1-32-32v-138.688h-288a32 32 0 0 1-32-32v-170.688a32 32 0 0 1 32-32h32v-353.792a32 32 0 0 1 32-32h682.624a32 32 0 0 1 32 32V396.48h32a32 32 0 0 1 32 32V599.168a32 32 0 0 1-32 32h-288V769.856a32 32 0 0 1-32 32H426.688z m394.624-727.168h-106.624v97.792a32 32 0 1 1-64 0v-97.792H544V172.8a32 32 0 1 1-64 0v-98.176H373.312v97.792a32 32 0 1 1-64 0v-97.792H202.688v320h618.624v-320zM458.688 599.168V737.856h106.624v-138.688a32 32 0 0 1 32-32h288v-106.688H138.688V567.168h288a32 32 0 0 1 32 32z"  horiz-adv-x="1024" />
      
      <glyph glyph-name="tubiao" unicode="&#59014;" d="M132.3125-37.875a42.1875 42.1875 0 0 0-42.1875 42.1875V763.6875a42.1875 42.1875 0 1 0 84.375 0v-717.1875h717.1875a42.1875 42.1875 0 0 0 0-84.375H132.3125zM463.604911 429.020089L374.107143 339.522321a42.1875 42.1875 0 1 0-59.665179 59.665179l119.330357 119.330357a42.1875 42.1875 0 0 0 59.665179 0l89.497768-89.497768 208.828125 208.828125a42.1875 42.1875 0 0 0 59.665178-59.665178l-238.660714-238.660715a42.1875 42.1875 0 0 0-59.665178 0L463.604911 429.020089zM918.325893 493.808036a42.1875 42.1875 0 0 0-84.375 0l0.060268 126.5625h-126.622768a42.1875 42.1875 0 0 0 0 84.375h168.75a42.1875 42.1875 0 0 0 42.1875-42.1875v-168.75z"  horiz-adv-x="1024" />
      
      <glyph glyph-name="dt" unicode="&#59193;" d="M926.785166 116.249628l-85.941628 272.513767a58.848798 58.848798 0 0 1-56.144178 41.128874h-66.589606c-43.600337-70.553273-104.500916-128.469443-145.070214-166.940329l-6.994707-6.621655a81.511647 81.511647 0 0 0-112.521513 0.093262l-8.207122 7.78744c-42.760972 40.569298-102.122715 97.086527-144.557268 165.681282H229.552817c-25.927046 0-48.823052-16.973821-56.330704-41.781713L92.736357 122.125181a58.848798 58.848798 0 0 1 70.599905-74.143889l181.489319 45.37233c17.25361 4.290086 35.626372 0.559577 49.802311-10.212271l143.95106-109.070791c14.362464-10.911742 32.921752-14.595621 50.361887-10.025746l296.575558 77.501348a58.848798 58.848798 0 0 1 41.268769 74.610203zM492.08747 296.992845a25.647257 25.647257 0 0 1 35.439846-0.046631c63.791724 60.62079 187.691293 173.328829 187.691292 299.093652a205.457847 205.457847 0 1 1-410.822431 0c0-126.137875 122.314102-236.794132 187.691293-299.047021zM509.807393 673.214795a77.128297 77.128297 0 1 0 2.098412-154.256595A77.128297 77.128297 0 0 0 509.807393 673.214795z"  horiz-adv-x="1024" />
      
      <glyph glyph-name="ycsb" unicode="&#59020;" d="M853.369742 298.366293h-205.637404V478.37184c0 23.884231-19.223893 43.108124-43.108125 43.108124-23.884231 0-43.108124-19.223893-43.108124-43.108124v-180.005547H167.717547c-37.865244 0-68.739982-30.874738-68.739983-68.739982v-188.74368c0-37.865244 30.874738-68.739982 68.739983-68.739982h685.652195c37.865244 0 68.739982 30.874738 68.739982 68.739982v188.74368c-0.582542 37.865244-30.874738 68.739982-68.739982 68.739982zM227.719396 92.728889c-23.884231 0-43.108124 19.223893-43.108125 43.108124 0 23.884231 19.223893 43.108124 43.108125 43.108125 23.884231 0 43.108124-19.223893 43.108124-43.108125 0-23.884231-19.223893-43.108124-43.108124-43.108124z m154.373688 0c-23.884231 0-43.108124 19.223893-43.108124 43.108124 0 23.884231 19.223893 43.108124 43.108124 43.108125 23.884231 0 43.108124-19.223893 43.108125-43.108125-0.582542-23.884231-19.806436-43.108124-43.108125-43.108124zM604.624213 658.377387c-99.032178 0-180.005547-80.973369-180.005546-180.005547 0-23.884231 19.223893-43.108124 43.108124-43.108124 23.884231 0 43.108124 19.223893 43.108125 43.108124 0 51.846258 41.94304 94.37184 94.37184 94.37184 51.846258 0 94.37184-41.94304 94.37184-94.37184 0-23.884231 19.223893-43.108124 43.108124-43.108124 23.884231 0 43.108124 19.223893 43.108124 43.108124 0 34.369991-9.903218 66.992356-26.796942 94.37184-15.72864-9.903218-33.787449-15.72864-53.593884-15.72864-54.758969 0-99.032178 44.273209-99.032178 99.032178-1.165084 0.582542-1.165084 1.165084-1.747627 2.330169 0.582542 0 0.582542 0 0 0zM330.829369 435.263716c23.884231 0 43.108124 19.223893 43.108124 43.108124 0 127.576747 103.692516 231.269262 231.269263 231.269262 5.24288 0 10.48576 0 15.72864-0.582542 17.476267 27.379484 48.351004 46.020836 83.303537 46.020836 54.758969 0 99.032178-44.273209 99.032178-99.032178 0-15.72864-3.495253-30.292196-9.903218-43.108125 26.796942-37.865244 43.108124-83.88608 43.108125-133.984711 0-23.884231 19.223893-43.108124 43.108124-43.108124 23.884231 0 43.108124 19.223893 43.108125 43.108124 0 175.345209-142.140302 316.902969-316.902969 316.902969-175.345209 0-316.902969-142.140302-316.902969-316.902969-1.165084-24.466773 18.058809-43.690667 41.94304-43.690666zM650.645049 603.035876c5.825422-5.825422 15.72864-5.825422 21.554062 0l32.622365 32.622364 32.622364-32.622364c5.825422-5.825422 15.72864-5.825422 21.554062 0s5.825422 15.72864 0 21.554062l-32.622364 32.622364 31.45728 31.45728c5.825422 5.825422 5.825422 15.72864 0 21.554062s-15.72864 5.825422-21.554062 0l-31.45728-31.45728-31.45728 31.45728c-5.825422 5.825422-15.72864 5.825422-21.554063 0s-5.825422-15.72864 0-21.554062l31.45728-31.45728-32.622364-32.622364c-5.825422-6.407964-5.825422-15.72864 0-21.554062z"  horiz-adv-x="1024" />
      
      <glyph glyph-name="yc" unicode="&#59392;" d="M770.56 349.184c-102.912 0-186.88-81.92-186.88-182.272 0-100.864 83.456-182.272 186.88-182.272 102.912 0 186.88 81.92 186.88 182.272 0 100.864-83.456 182.272-186.88 182.272z m0-303.104c-68.096 0-123.392 54.272-123.392 120.832 0 66.56 55.296 120.832 123.392 120.832s123.392-54.272 123.392-120.832c0.512-66.56-54.784-120.832-123.392-120.832zM770.56 268.8c16.384 0 29.184-12.8 29.184-28.672v-0.512l-8.704-95.232c-1.536-8.192-8.192-14.848-16.896-16.384-1.024 0-2.56-0.512-3.584-0.512-4.096 0-8.192 1.024-11.776 3.584-4.608 3.072-7.68 7.68-8.704 12.8v1.024l-8.704 92.672v1.536c0 15.872 12.8 29.184 29.184 29.696zM799.744 93.184c0-15.36-13.312-28.16-29.184-28.16s-29.184 12.8-29.184 28.672c0 15.872 12.8 28.16 28.672 28.672h3.072c15.872-1.536 27.648-14.336 26.624-29.184zM609.28 440.832c18.432 0 32.768 14.848 32.768 32.256 0 90.624-75.264 164.352-169.472 164.352-92.672 0-167.936-73.728-167.936-164.352v-3.072c1.024-17.92 16.384-31.744 34.816-30.72 18.432 1.024 32.256 15.872 31.744 33.792v0.512c0.512 55.296 46.592 99.328 102.912 98.816 56.32 0 101.888-44.544 101.888-99.328 0-17.92 14.848-32.256 33.28-32.256zM214.016 441.856c20.48 0 37.376 16.384 37.376 36.352 0 119.808 99.84 217.6 222.208 217.6 122.88 0 222.208-97.28 222.208-217.088 0-19.968 16.896-36.352 37.376-36.352s37.376 16.384 37.376 36.352c0 159.744-133.12 290.304-296.96 290.304s-296.96-130.048-296.96-290.304c0-20.992 16.896-36.864 37.376-36.864zM279.552 166.912c0-22.016-17.92-39.424-40.448-39.424s-40.448 17.92-40.448 39.424c0 22.016 17.92 39.424 40.448 39.424s40.448-17.408 40.448-39.424zM422.912 166.912c0-22.016-17.92-39.424-40.448-39.424s-40.448 17.92-40.448 39.424c0 22.016 17.92 39.424 40.448 39.424 22.016 0 39.936-17.408 40.448-39.424zM600.064 314.88H512V479.744v3.584c-1.024 20.48-18.944 36.352-39.936 35.328-20.992-1.024-37.376-18.432-36.352-38.912v-164.864H160.768c-39.424 0-71.168-31.232-71.168-69.12v-157.184c0-38.4 31.744-69.12 71.168-69.632h439.296c-35.84 39.424-57.856 91.136-57.856 147.968 0 56.832 22.016 108.544 57.856 147.968zM209.92 88.576c-26.112 0-47.616 20.992-47.616 46.592v64c0 25.6 20.992 46.08 47.616 46.08h279.04c-11.776-25.088-18.944-47.104-18.944-78.336 0-31.744 6.144-51.2 18.944-78.336H209.92z"  horiz-adv-x="1024" />
      
      <glyph glyph-name="chengz" unicode="&#58963;" d="M616.8576 488.8576V686.921956c0 58.254222-46.603378 104.8576-104.8576 104.8576H203.252622C150.823822 791.779556 104.220444 745.176178 104.220444 686.921956V-23.779556h815.559112v355.350756l-302.921956 157.2864z m-314.5728-367.0016c0-17.476267-11.650844-29.127111-29.127111-29.127111h-58.254222c-17.476267 0-29.127111 11.650844-29.127111 29.127111v58.254222c0 17.476267 11.650844 29.127111 29.127111 29.127111h58.254222c17.476267 0 29.127111-11.650844 29.127111-29.127111v-58.254222z m0 233.016889c0-17.476267-11.650844-29.127111-29.127111-29.127111h-58.254222c-17.476267 0-29.127111 11.650844-29.127111 29.127111v58.254222c0 17.476267 11.650844 29.127111 29.127111 29.127111h58.254222c17.476267 0 29.127111-11.650844 29.127111-29.127111v-58.254222z m0 233.016889c0-17.476267-11.650844-29.127111-29.127111-29.127111h-58.254222c-17.476267 0-29.127111 11.650844-29.127111 29.127111v58.254222c0 17.476267 11.650844 29.127111 29.127111 29.127111h58.254222c17.476267 0 29.127111-11.650844 29.127111-29.127111v-58.254222z m233.016889-466.033778c0-17.476267-11.650844-29.127111-29.127111-29.127111h-58.254222c-17.476267 0-29.127111 11.650844-29.127112 29.127111v58.254222c0 17.476267 11.650844 29.127111 29.127112 29.127111h58.254222c17.476267 0 29.127111-11.650844 29.127111-29.127111v-58.254222z m0 233.016889c0-17.476267-11.650844-29.127111-29.127111-29.127111h-58.254222c-17.476267 0-29.127111 11.650844-29.127112 29.127111v58.254222c0 17.476267 11.650844 29.127111 29.127112 29.127111h58.254222c17.476267 0 29.127111-11.650844 29.127111-29.127111v-58.254222z m0 233.016889c0-17.476267-11.650844-29.127111-29.127111-29.127111h-58.254222c-17.476267 0-29.127111 11.650844-29.127112 29.127111v58.254222c0 17.476267 11.650844 29.127111 29.127112 29.127111h58.254222c17.476267 0 29.127111-11.650844 29.127111-29.127111v-58.254222z m279.620267-559.240534h-151.460978V209.237333c0 40.777956 34.952533 75.730489 75.730489 75.730489 40.777956 0 75.730489-34.952533 75.730489-75.730489v-180.588089z"  horiz-adv-x="1024" />
      
      <glyph glyph-name="xiang" unicode="&#59028;" d="M894.4 491.712h33.6l-95.744 265.6-95.808-265.6h33.792l-33.792-93.376h33.792l-33.792-93.44h76.928v-241.792H115.84V0h793.152v63.104H851.2V304.832h76.8l-33.6 93.504h33.6l-33.6 93.44zM156.928 103.104h509.184V417.664h44.288c14.72 0 22.208 18.368 11.904 29.44l-296.96 314.816a18.88 18.88 0 0 1-27.712 0l-296.896-314.88c-10.24-10.88-2.752-29.44 11.904-29.44h44.288v-314.496zM426.88 417.664h102.272v-106.496H426.88V417.664z m0-139.264h102.272v-106.496H426.88V278.4zM257.92 417.664h102.336v-106.496H257.92V417.664z m0-139.264h102.336v-106.496H257.92V278.4z"  horiz-adv-x="1024" />
      
      <glyph glyph-name="weizhi" unicode="&#59153;" d="M71.5712 561.952a44.210133 44.210133 0 0 1 29.271467-30.6208l403.658666-128.529067a17.192533 17.192533 0 0 0 11.156267-11.134933l129.7984-405.077333c7.445333-23.236267 32.3136-36.049067 55.544533-28.618667a44.132267 44.132267 0 0 1 29.197867 30.6592L939.312 772.394667c6.286933 23.565867-7.722667 47.780267-31.293867 54.0832a44.170667 44.170667 0 0 1-22.88-0.014934L102.724267 616.074667c-23.28-6.260267-37.176533-30.005333-31.3664-53.3024l0.213333-0.821334z"  horiz-adv-x="1024" />
      
      <glyph glyph-name="NFC-3" unicode="&#59971;" d="M122.88 648.106667V733.866667c0 30.72 24.32 55.04 55.04 55.04h85.76v25.6h-85.76c-44.8 0-80.64-35.84-80.64-80.64v-85.76h25.6zM775.68 788.906667h85.76c30.72 0 55.04-24.32 55.04-55.04v-85.76h25.6V733.866667c0 44.8-35.84 80.64-80.64 80.64h-85.76v-25.6zM916.48 136.106667v-85.76c0-30.72-24.32-55.04-55.04-55.04h-85.76v-25.6h85.76c44.8 0 80.64 35.84 80.64 80.64v85.76h-25.6zM263.68-4.693333h-85.76c-30.72 0-55.04 24.32-55.04 55.04v85.76h-25.6v-85.76c0-44.8 35.84-80.64 80.64-80.64h85.76v25.6zM221.44 507.306667h49.92L343.04 375.466667l24.32-53.76h1.28c-2.56 25.6-6.4 58.88-6.4 85.76v98.56H409.6V260.266667h-49.92l-71.68 131.84-25.6 52.48h-1.28c2.56-26.88 6.4-57.6 6.4-85.76V260.266667h-46.08V507.306667zM469.76 507.306667h152.32v-40.96h-102.4v-64h87.04v-40.96h-87.04V260.266667h-48.64V507.306667zM648.96 383.146667c0 80.64 52.48 129.28 113.92 129.28 30.72 0 56.32-15.36 71.68-32l-25.6-30.72c-12.8 11.52-26.88 20.48-44.8 20.48-37.12 0-65.28-32-65.28-84.48 0-53.76 25.6-85.76 64-85.76 20.48 0 37.12 10.24 51.2 24.32l25.6-30.72c-20.48-23.04-46.08-35.84-78.08-35.84-62.72-1.28-112.64 43.52-112.64 125.44z"  horiz-adv-x="1024" />
      
      <glyph glyph-name="NFC1" unicode="&#58924;" d="M405.128533 473.531733l-20.514133 31.300267-20.548267 31.300267 0.068267 0.068266 0.136533 0.068267 0.238934 0.170667 0.785066 0.580266c3.618133 2.389333 7.338667 4.7104 11.093334 6.894934a264.192 264.192 0 0 0 30.5152 15.018666A273.169067 273.169067 0 0 0 512 580.778667c42.939733 0 79.4624-11.025067 105.130667-21.8112 13.5168-5.666133 26.555733-12.458667 39.0144-20.2752l2.525866-1.6384 0.785067-0.580267 0.273067-0.170667 0.1024-0.068266h0.068266s0-0.068267-20.548266-31.368534l-20.48-31.300266A202.922667 202.922667 0 0 1 512 504.832a203.093333 203.093333 0 0 1-77.9264-16.213333 198.929067 198.929067 0 0 1-29.149867-15.223467h0.1024v0.1024h0.068267z m213.7088 0l0.068267-0.034133 0.034133-0.068267h0.068267l-0.170667 0.1024zM255.351467 647.304533l20.718933-30.856533 0.580267 0.4096 2.9696 1.979733c2.7648 1.706667 7.031467 4.3008 12.629333 7.509334 11.264 6.382933 27.989333 15.018667 49.152 23.722666 42.325333 17.408 101.7856 34.645333 170.564267 34.645334 68.778667 0 128.238933-17.271467 170.666666-34.645334 21.162667-8.704 37.888-17.339733 49.152-23.722666 5.290667-3.003733 10.478933-6.144 15.598934-9.489067l0.580266-0.341333 20.718934 30.788266c20.6848 30.890667 20.616533 30.9248 20.616533 30.9248h-0.068267l-0.1024 0.136534-0.375466 0.273066-1.297067 0.8192c-6.587733 4.3008-13.312 8.362667-20.138667 12.253867a513.160533 513.160533 0 0 1-57.275733 27.648C661.572267 739.328 592.657067 759.466667 511.931733 759.466667c-80.5888 0-149.504-20.138667-198.0416-40.106667-24.3712-9.966933-43.758933-20.002133-57.309866-27.648-6.826667-3.8912-13.5168-7.953067-20.104534-12.253867l-1.262933-0.8192-0.341333-0.273066-0.170667-0.1024-0.068267-0.034134 20.6848-30.9248zM908.629333 66.901333a126.976 126.976 0 0 1 23.4496 64.955734l-77.482666-0.9216c-3.140267-18.500267-10.24-32.836267-21.4016-43.008-11.127467-10.0352-26.077867-14.7456-44.782934-14.1312-28.945067 1.1264-43.008 21.2992-42.222933 60.450133 0 13.243733 2.048 35.259733 6.280533 66.184533 9.1136 68.266667 34.542933 101.717333 76.322134 100.283734 16.725333-0.682667 28.910933-5.495467 36.693333-14.574934 7.714133-9.1136 11.434667-24.200533 11.093333-45.3632l79.1552-0.273066c-1.8432 38.877867-13.5168 69.358933-35.054933 91.477333-21.333333 22.152533-50.449067 33.518933-87.2448 34.133333a139.264 139.264 0 0 1-69.393067-16.1792c-21.060267-11.1616-39.389867-28.0576-55.022933-50.653866-15.428267-22.459733-26.624-48.913067-33.621333-79.291734-6.826667-30.4128-9.5232-58.504533-8.157867-84.309333 1.877333-38.673067 12.970667-69.358933 33.211733-91.989333 20.2752-22.528 48.059733-34.269867 83.285334-35.054934 24.610133-0.682667 49.0496 4.266667 71.509333 14.574934a131.618133 131.618133 0 0 1 53.384533 43.690666z m-566.272-53.486933H265.557333l-80.827733 219.477333-37.137067-219.477333H68.266667l58.504533 347.682133h77.482667l80.554666-219.4432 36.864 219.477334h79.394134l-58.709334-347.682134v-0.034133z m282.4192 138.513067h-127.3856l-23.4496-138.513067h-79.394133l58.504533 347.682133h219.7504l-10.922666-64.682666h-140.151467l-13.448533-80.008534h127.3856l-10.922667-64.512V151.893333z"  horiz-adv-x="1024" />
      
      <glyph glyph-name="NFC2" unicode="&#58972;" d="M296.89625 461.676562h33.85875l49.7925-91.618125 15.93375-35.850937h1.992188c-1.992188 17.925-3.984375 39.834375-3.984376 59.750625v67.718437h33.859688v-173.278124h-35.85l-49.793438 91.618125-15.93375 35.85H324.78125c1.99125-17.925 3.983437-39.833438 3.983437-59.750625V286.40625h-33.85875c1.99125 0 1.99125 175.270312 1.99125 175.270312z m173.278125 0h105.559687v-27.884062h-71.7v-43.817813h61.741875v-29.875312h-59.750625v-69.709688h-35.850937V461.676562z m125.476875-85.643437c0 57.759375 35.85 89.626875 81.66 89.626875 21.909375 0 37.842188-11.950313 49.7925-21.909375l-17.925-21.908438c-9.959062 7.966875-17.925 13.9425-31.8675 13.9425-25.891875 0-45.809063-21.909375-45.809063-59.751562 0-35.85 17.925-59.750625 43.816876-59.750625 13.9425 0 25.892813 7.966875 35.850937 15.932813l17.925-21.908438c-13.940625-15.93375-33.85875-25.891875-55.767187-25.891875-43.817813 1.99125-77.676563 33.85875-77.676563 91.618125z m235.020938-324.646875c-5.974687 0-11.950313 1.99125-13.941563 5.974687-11.950313 9.958125-13.9425 25.891875-7.966875 37.842188 85.6425 123.485625 109.543125 256.929375 75.684375 400.332187-25.891875 107.551875-77.676563 177.261562-77.676563 177.261563-9.958125 11.950313-5.974687 29.875312 5.975625 37.842188 11.950313 9.958125 29.875312 5.974687 37.842188-5.975625 1.99125-3.9825 59.750625-79.667812 85.643438-195.186563 25.891875-109.543125 33.85875-272.863125-85.643438-444.149063-3.984375-9.958125-11.950313-13.941562-19.917188-13.941562z m-63.734063 115.51875c-3.984375 0-9.959062 1.99125-11.950313 3.9825-11.950313 7.966875-17.925 23.900625-9.959062 35.850938 97.59375 171.286875 3.984375 328.63125 0 334.605937-7.966875 11.950313-3.983437 29.875312 9.959062 35.85 11.950313 7.967812 29.875312 3.984375 35.850001-9.958125 3.984375-7.966875 115.51875-191.203125 1.992187-392.365313-7.966875-1.99125-17.925-7.965937-25.891875-7.965937z m-569.626875-115.51875c-9.958125 0-15.93375 3.983437-21.909375 11.950313-119.50125 169.29375-115.51875 332.61375-89.625938 442.156875 25.891875 115.51875 79.66875 191.203125 81.66 195.1875 9.958125 11.949375 25.891875 13.940625 37.842188 5.974687s15.93375-25.891875 5.974687-39.834375c0-1.99125-51.78375-73.692188-75.684375-181.244063-31.8675-137.428125-3.983437-270.871875 83.651251-392.365312 9.959062-11.950313 5.975625-29.875312-5.974688-37.842188-3.984375-1.992188-9.959062-3.984375-15.93375-3.984375z m61.742812 115.51875c-9.959062 0-17.925 3.9825-23.900625 11.949375-115.51875 199.170938-7.966875 384.398438-3.983437 392.365313 7.966875 11.950313 23.900625 15.93375 35.85 9.959062 11.95125-7.966875 15.934688-23.900625 9.959062-35.850938-3.983437-7.966875-95.601563-167.3025 3.984376-334.605937 7.965937-11.950313 3.9825-29.875312-9.959063-35.85 0-5.975625-5.975625-7.966875-11.950313-7.966875z"  horiz-adv-x="1024" />
      
      <glyph glyph-name="gz" unicode="&#58886;" d="M169.374576-37.854024h792.994528a77.309042 77.309042 0 0 1 66.611168 38.060195 87.354323 87.354323 0 0 1 0 79.243516L632.506315 767.79616A74.582133 74.582133 0 0 1 565.895147 805.856354a81.574208 81.574208 0 0 1-66.611167-38.060194L102.810022 79.519607A60.947587 60.947587 0 0 1 90.13106 41.459413v-3.169741a84.440958 84.440958 0 0 1 9.509222-38.060194A79.59312 79.59312 0 0 1 169.374576-37.854024z m361.630117 574.095968a38.083502 38.083502 0 0 0 34.960375 38.060195 35.193444 35.193444 0 0 0 34.960375-34.960375v-282.200145a34.960375 34.960375 0 0 0-69.780909 0z m12.678962-367.922984a54.188581 54.188581 0 0 0 44.399677 0 44.003458 44.003458 0 0 0 22.211491-38.060195 48.361852 48.361852 0 0 0-22.211491-38.060195 54.188581 54.188581 0 0 0-44.399677 0 44.003458 44.003458 0 0 0-22.211491 38.060195 48.361852 48.361852 0 0 0 22.234798 38.060195z"  horiz-adv-x="1151" />
      
      <glyph glyph-name="db" unicode="&#60479;" d="M526.0625 805.875C347.69375 805.875 202.625 661.03125 202.625 483c0-66.09375 19.9125-129.7125 57.15-183.234375 1.85625-3.20625 3.740625-6.3 5.9625-9.309375l236.08125-310.66875c6.4125-7.115625 15.01875-11.053125 24.24375-11.053125 9.1125 0 17.775 3.965625 25.284375 12.375l234.984375 309.375c2.30625 3.09375 4.303125 6.46875 5.371875 8.4375A320.68125 320.68125 0 0 1 849.5 483C849.5 661.03125 704.403125 805.875 526.0625 805.875z m0-438.328125a115.59375 115.59375 0 0 0-115.5375 115.340625 115.565625 115.565625 0 0 0 231.046875 0 115.59375 115.59375 0 0 0-115.509375-115.3125z"  horiz-adv-x="1024" />
      
      <glyph glyph-name="zxda" unicode="&#59073;" d="M519.551563 482.71875v-421.453125H449.5625V805.875h69.904687v-48.473438c24.80625-19.617188 78.595313-57.628125 122.892188-57.628124 59.695313 0 147.360938-0.759375 185.498437-11.475a312.8625 312.8625 0 0 1 107.578125-6.24375c11.559375 3.164063-81.885937-137.067187-81.885937-137.067188l86.484375-143.1a598.851563 598.851563 0 0 1-108.50625 18.689062c-61.93125 5.146875-213.46875-5.7375-252.998437 22.275a1516.809375 1516.809375 0 0 1-58.978125 39.909375z m97.621875-311.217188l0.253125 52.523438c159.384375-17.71875 274.471875-68.090625 274.471875-127.40625 0-74.545312-179.845313-134.49375-400.865625-134.49375C269.970312-37.875 90.125 22.242188 90.125 96.576563c0 58.345312 112.21875 108.50625 268.565625 126.857812v-52.692187c-96.609375-13.710938-162.717187-41.68125-162.717187-74.165625 0-45.815625 132.046875-83.067188 294.806249-83.067188 162.717187 0 294.764063 37.167187 294.764063 83.109375 0 33.032812-69.01875 61.59375-168.370313 74.882813z"  horiz-adv-x="1031" />
      
      <glyph glyph-name="zxd" unicode="&#58929;" d="M512 809a425 425 0 1 0 0-850 425 425 0 0 0 0 850z m0-50a375 375 0 1 1 0-750 375 375 0 0 1 0 750zM512 634a250 250 0 1 0 0-500A250 250 0 0 0 512 634z m0-100a150 150 0 1 1 0-300 150 150 0 0 1 0 300z"  horiz-adv-x="1024" />
      
      <glyph glyph-name="zxd1" unicode="&#59033;" d="M511.892021-37.659041a421.767021 421.767021 0 1 0 421.76702 421.76702 422.198938 422.198938 0 0 0-421.76702-421.76702z m0 831.008446a410.321218 410.321218 0 1 1 410.321218-409.241426 410.321218 410.321218 0 0 1-410.321218 409.241426zM511.892021 695.736146A311.628167 311.628167 0 1 0 200.263854 384.107979 311.628167 311.628167 0 0 0 511.892021 695.736146z"  horiz-adv-x="1024" />
      
      <glyph glyph-name="zx" unicode="&#58885;" d="M512 631.5a90 90 0 1 0-90-90A90 90 0 0 0 512 631.5m0 198A288 288 0 1 1 800 541.5 288 288 0 0 1 512 829.5zM481.760352 255.210352h59.668945v-320.670704h-59.668945z"  horiz-adv-x="1024" />
      
      <glyph glyph-name="ceju" unicode="&#58884;" d="M924.728889 660.764445L795.875556 789.617778a121.230222 121.230222 0 0 1-171.008 0L149.048889 313.799111a121.230222 121.230222 0 0 1 0-171.008l128.853333-128.853333a121.230222 121.230222 0 0 1 171.008 0l475.818667 475.818667a121.230222 121.230222 0 0 1 0 171.008z m-514.161778-598.471111l-84.195555 84.138666a30.321778 30.321778 0 0 0 0 42.723556 30.321778 30.321778 0 0 0 42.780444 0l84.195556-84.195556-42.780445-42.666666z m105.756445 105.813333l-152.120889 152.064a30.321778 30.321778 0 0 0 0 42.666667 30.321778 30.321778 0 0 0 42.780444 0l152.064-152.007111-42.723555-42.780445z m105.813333 105.699556l-84.195556 84.195555a30.321778 30.321778 0 0 0 0 42.666667 30.321778 30.321778 0 0 0 42.723556 0l84.195555-84.138667-42.723555-42.723555z m105.699555 105.813333l-152.064 152.064a30.321778 30.321778 0 0 0 0 42.780444 30.321778 30.321778 0 0 0 42.723556 0l152.120889-152.120889-42.780445-42.666666z m105.813334 105.756444l-84.195556 84.195556a30.321778 30.321778 0 0 0 0 42.666667 30.321778 30.321778 0 0 0 42.780445 0l84.195555-84.195556-42.723555-42.666667z"  horiz-adv-x="1024" />
      
      <glyph glyph-name="exit" unicode="&#59775;" d="M90.125 647.671875v-527.34375c0-58.255005 47.213745-105.46875 105.46875-105.46875h290.039063c14.584351 0 26.367188 11.782837 26.367187 26.367188s-11.782837 26.367188-26.367188 26.367187H195.59375c-29.086304 0-52.734375 23.648071-52.734375 52.734375V647.671875c0 29.086304 23.648071 52.734375 52.734375 52.734375h290.039063c14.584351 0 26.367188 11.782837 26.367187 26.367188s-11.782837 26.367188-26.367188 26.367187H195.59375C137.338745 753.140625 90.125 705.92688 90.125 647.671875zM925.058472 403.528198L626.450073 673.46228c-33.947754 30.651855-88.082886 6.591797-88.082886-39.138794V526.547607c0-3.625488-2.966309-6.591797-6.591796-6.591796H274.695313c-14.584351 0-26.367188-11.782837-26.367188-26.367188v-219.177246c0-14.584351 11.782837-26.367188 26.367188-26.367188h257.080078c3.625488 0 6.591797-2.966309 6.591796-6.591796v-107.858277c0-45.730591 54.217529-69.790649 88.082886-39.138794l298.608399 269.934082c11.618042 10.546875 11.618042 28.674316 0 39.138794zM301.0625 313.962158V454.037842c0 7.250977 5.932617 13.183594 13.183594 13.183594h250.488281c14.584351 0 26.367188 11.782837 26.367188 26.367187V604.083618c0 11.453247 13.513184 17.468262 22.000122 9.805298L863.013184 388.86145c2.883911-2.636719 2.883911-7.168579 0-9.805298L613.101685 154.111084c-8.486938-7.662964-22.000122-1.647949-22.000122 9.805298V274.411377c0 14.584351-11.782837 26.367188-26.367188 26.367187H314.246094c-7.250977 0-13.183594 5.932617-13.183594 13.183594z"  horiz-adv-x="1024" />
      
      <glyph glyph-name="nongtian" unicode="&#59256;" d="M365.653333 690.773333a42.666667 42.666667 0 0 1-42.666666 34.56H190.08a42.666667 42.666667 0 0 1-42.666667-38.4l-59.946666-597.333333a42.666667 42.666667 0 0 1 42.666666-46.933333h334.72a42.666667 42.666667 0 0 1 41.6 51.626666L365.653333 690.773333z m490.88-211.84l-49.28 213.333334A42.666667 42.666667 0 0 1 765.866667 725.333333h-290.986667a42.666667 42.666667 0 0 1-41.6-52.266666l49.28-213.333334a42.666667 42.666667 0 0 1 41.386667-33.066666h290.986666a42.666667 42.666667 0 0 1 41.6 52.266666zM523.946667 469.333333l-49.066667 213.333334h290.986667l49.066666-213.333334h-290.986666z m418.133333-374.826666l-49.28 234.666666a42.709333 42.709333 0 0 1-41.6 33.493334h-290.986667a42.666667 42.666667 0 0 1-42.666666-51.84l49.28-234.666667a42.666667 42.666667 0 0 1 42.453333-33.493333h290.986667a42.666667 42.666667 0 0 1 42.666666 51.84h-0.853333z"  horiz-adv-x="1024" />
      
      <glyph glyph-name="sp" unicode="&#58883;" d="M383.1875 267.28125c4.125 0 7.96875 1.125 11.34375 3.09375l160.96875 93.75c7.5 3.375 12.75 11.15625 12.75 20.15625 0 8.25-4.5 15.5625-11.15625 19.40625l-157.3125 91.6875c-4.03125 4.6875-10.03125 7.59375-16.59375 7.59375-12.28125 0-22.125-10.03125-22.125-22.3125v-1.21875l-0.28125-0.1875 0.375-187.3125c-0.09375-0.75-0.09375-1.5-0.09375-2.34375 0-12.375 9.9375-22.3125 22.125-22.3125zM92.65625 314.34375a30.1875 30.09375 0 1 1 60.375 0 30.1875 30.09375 0 1 1-60.375 0ZM932 490.59375c0.09375 1.5 0.1875 3 0.1875 4.5 0 32.8125-26.71875 59.34375-59.625 59.34375-10.96875 0-21.28125-3-30.1875-8.15625l-0.46875 0.28125-29.53125-17.0625v60.65625c-0.09375 68.53125-56.15625 124.6875-124.78125 124.6875H217.0625c-68.53125 0-124.6875-56.0625-124.6875-124.6875v-155.4375h0.1875c0-16.59375 13.5-30.09375 30.1875-30.09375s30.1875 13.5 30.1875 30.09375h0.1875V594.9375c0 33 27 60 60 60h478.3125c33 0 60-27 60-60v-420.84375c0-33-27-60-60-60H213.21875c-33 0-60 27-60 60v20.0625c0 16.59375-13.5 30.09375-30.1875 30.09375-16.6875 0-30.1875-13.5-30.1875-30.09375h-0.375v-14.34375c0-68.625 56.15625-124.6875 124.6875-124.6875h470.53125c68.625 0 124.6875 56.0625 124.6875 124.6875v60.09375l31.03125-17.90625 0.09375 0.09375c8.625-4.78125 18.5625-7.5 29.0625-7.5 32.90625 0 59.625 26.625 59.625 59.34375 0 1.5-0.09375 3-0.1875 4.5V490.59375z m-59.625-192.28125c-0.28125-7.3125-6.46875-13.21875-14.0625-13.21875-2.53125 0-4.96875 0.65625-7.03125 1.875l-38.90625 22.21875V460.78125l38.34375 21.75c2.15625 1.40625 4.78125 2.15625 7.59375 2.15625 7.78125 0 14.0625-6.1875 14.0625-13.6875v-172.6875z"  horiz-adv-x="1024" />
      
      <glyph glyph-name="pq" unicode="&#59154;" d="M509.42 182.3c-5.82 0-11.64 2.88-17.46 5.82-8.76 5.82-226.86 168.66-226.86 334.5C267.98 656.42 375.62 764 509.42 764a243.9 243.9 0 0 0 244.32-244.32c0-164.52-211.98-323.34-226.56-334.2l-0.3-0.3c-2.94 0-5.82-0.72-8.76-1.44a36.6 36.6 0 0 0-8.7-1.44z m0 523.5a185.58 185.58 0 0 1-186.18-186.12c0-101.82 119.28-221.04 183.24-273.42 49.44 40.74 186.18 159.96 186.18 273.42 2.88 104.7-81.48 186.12-183.24 186.12zM427.94 539.06a77.58 77.58 0 1 0 155.16 0 77.58 77.58 0 0 0-155.16 0zM189.02 655.28A64.26 64.26 0 0 1 92 600.08v-453c0-26.52 16.26-50.34 40.98-59.94l199.26-77.4c12.78-4.92 26.82-5.7 40.08-2.1l258.12 69.9a9.18 9.18 0 0 0 4.2 0.12l220.5-44.04A64.26 64.26 0 0 1 932 96.62v477a27.54 27.54 0 1 1-55.08 0v-477a9.18 9.18 0 0 0-10.98-9l-220.5 44.04a64.32 64.32 0 0 1-29.4-0.96L357.92 60.8a9.18 9.18 0 0 0-5.76 0.3l-199.2 77.4a9.18 9.18 0 0 0-5.88 8.58v453c0 7.08 7.8 11.46 13.86 7.8l27.72-16.38a27.54 27.54 0 1 1 28.08 47.4l-27.72 16.38z m13.2-298.32a32.16 32.16 0 1 0 64.2 0v-142.26a32.1 32.1 0 1 0-64.2 0V356.96z m582.9 137.7a32.16 32.16 0 0 1-32.16-32.1v-96.42a32.16 32.16 0 0 1 64.26 0V462.56a32.1 32.1 0 0 1-32.1 32.1z"  horiz-adv-x="1024" />
      
      <glyph glyph-name="kt" unicode="&#58893;" d="M837.180281 132.073778h-108.399319v58.468115h81.303908a50.461447 50.461447 0 0 1 38.866803 16.543578 59.033707 59.033707 0 0 1 15.324019 41.924536V658.251459a59.033707 59.033707 0 0 1-15.324019 41.924537 50.461447 50.461447 0 0 1-38.884478 16.525903H213.932805a50.461447 50.461447 0 0 1-38.866803-16.525903 59.033707 59.033707 0 0 1-15.324019-41.924537V248.992333a59.033707 59.033707 0 0 1 15.324019-41.924537 50.461447 50.461447 0 0 1 38.884477-16.543578h81.286233v-58.468114h-108.399318c-21.775307-0.813039-42.914323 8.148066-58.326717 24.780017-15.412393 16.631952-23.737206 39.41472-22.977191 62.922154V682.589607c-0.282796 50.779593 37.611895 92.226911 84.697462 92.580406h643.573453c47.085567-0.353495 84.980258-41.800813 84.679788-92.580406v-462.813657c0.77769-23.507434-7.547124-46.290203-22.977192-62.922155-15.394718-16.614277-36.533734-25.593056-58.326716-24.780017zM512 541.332905c65.060801 0 117.819967-52.352647 117.819967-116.918554 0-64.583582-52.759166-116.936229-117.819967-116.936229-65.060801 0-117.819967 52.352647-117.819967 116.936229 0 64.565908 52.759166 116.918554 117.819967 116.918554z m-58.909984-233.837108h117.819968c65.060801 0 117.819967-52.352647 117.819967-116.936229v-116.918555H335.252375v116.918555c0 64.583582 52.759166 116.918554 117.819967 116.918554zM129.093944 73.605664h765.812112c16.260782 0 29.463829-13.079324 29.463829-29.234057A29.340106 29.340106 0 0 0 894.906056 15.155224H129.093944a29.340106 29.340106 0 0 0-29.463829 29.234057 29.340106 29.340106 0 0 0 29.463829 29.234058z"  horiz-adv-x="1024" />
      
      <glyph glyph-name="qiaojie" unicode="&#59285;" d="M579.5 210.75c-4.5 4.5-9 4.5-13.5 0l-132.75-132.75c-60.75-60.75-164.25-67.5-231.75 0-67.5 67.5-60.75 171 0 231.75l132.75 132.75c4.5 4.5 4.5 9 0 13.5l-45 45c-4.5 4.5-9 4.5-13.5 0l-132.75-132.75c-45-45-72-108-72-173.25 0-65.25 24.75-128.25 72-173.25 45-45 108-72 173.25-72 65.25 0 128.25 24.75 173.25 72l132.75 132.75c4.5 4.5 4.5 9 0 13.5L579.5 210.75zM872 748.5c-45 45-108 72-173.25 72-65.25 0-128.25-27-173.25-72l-132.75-132.75c-4.5-4.5-4.5-9 0-13.5l45-45c4.5-4.5 9-4.5 13.5 0l132.75 132.75c60.75 60.75 164.25 67.5 231.75 0 67.5-67.5 60.75-171 0-231.75l-132.75-132.75c-4.5-4.5-4.5-9 0-13.5l45-45c4.5-4.5 9-4.5 13.5 0l132.75 132.75C968.75 496.5 968.75 651.75 872 748.5zM620 541.5c-4.5 4.5-9 4.5-13.5 0L352.25 285c-4.5-4.5-4.5-9 0-13.5l45-45c4.5-4.5 9-4.5 13.5 0l256.5 256.5c4.5 4.5 4.5 9 0 13.5l-47.25 45z m0 0"  horiz-adv-x="1024" />
      
      <glyph glyph-name="ilunguan" unicode="&#59143;" d="M466.488889 684.758045L466.488889 722.577778 375.466667 722.577778 375.466667 813.6l273.066666 0 0-91.022222-91.022222 0 0-37.819733a362.222933 362.222933 0 0 0 173.169778-70.132623l49.789156 49.789156 64.35271-64.352711-48.78791-48.787912A364.088889 364.088889 0 1 0 466.488889 684.758045z m91.022222-195.470223L557.511111 586.044445l-91.022222 0 0-96.756623A182.135467 182.135467 0 0 1 512 130.933333a182.044445 182.044445 0 0 1 45.511111 358.354489zM512 221.955555a91.022222 91.022222 0 1 0 0 182.044445 91.022222 91.022222 0 0 0 0-182.044445z"  horiz-adv-x="1024" />
      
      <glyph glyph-name="suoding" unicode="&#58881;" d="M393.078921 479.686003l-120.839161 0 0 140.97902q0 46.033966 18.221778 85.834166t50.34965 70.009991 75.764236 47.472528 95.424576 17.262736q46.033966 0 88.711289-17.262736t75.764236-47.472528 52.747253-70.009991 19.660339-85.834166l0-140.97902-116.043956 0 0 114.125874q0 60.41958-33.566434 93.506494t-91.108891 33.086913q-51.788212 0-83.436563-33.086913t-31.648352-93.506494l0-114.125874zM806.425574 422.143545q25.894106 0 44.595405-18.701298t18.701299-44.595405l0-297.302698q0-25.894106-9.110889-48.431568t-24.935066-39.32068-37.402597-26.373626-47.472528-9.590409l-484.315685 0q-25.894106 0-46.993006 9.590409t-35.964036 25.414585-23.016983 36.923077-8.151849 45.074925l0 304.015984q0 25.894106 18.221778 44.595405t44.115884 18.701298l57.542457 0 120.839161 0 239.76024 0 116.043956 0 57.542457 0z"  horiz-adv-x="1024" />
      
      <glyph glyph-name="mm" unicode="&#58936;" d="M322.0625 634.40625c21.1875 0 38.4375-17.15625 38.4375-38.4375v-160.125c0-21.1875-17.15625-38.4375-38.4375-38.4375-21.1875 0-38.4375 17.15625-38.4375 38.4375V595.96875c0.09375 21.1875 17.25 38.4375 38.4375 38.4375zM700.90625 638.15625c21.1875 0 38.4375-17.15625 38.4375-38.4375v-21.9375c0-21.1875-17.15625-38.4375-38.4375-38.4375-21.1875 0-38.4375 17.15625-38.4375 38.4375v21.9375c0.09375 21.1875 17.25 38.4375 38.4375 38.4375zM511.53125 750.65625c83.4375 0 151.03125-67.59375 151.03125-151.03125h76.78125c0 125.8125-102 227.8125-227.8125 227.8125s-227.8125-102-227.8125-227.8125h76.78125c0 83.4375 67.59375 151.03125 151.03125 151.03125zM854.5625-10.3125V417c-3.1875 31.3125-29.0625 55.96875-60.84375 57.1875H231.40625c-35.15625 0-63.75-28.5-63.84375-63.65625V-6c3.75-28.3125 26.0625-50.8125 54.28125-54.84375H804.5c25.3125 5.15625 45.1875 25.125 50.0625 50.53125zM441.59375 206.71875c0 21.1875 17.15625 38.4375 38.4375 38.4375h62.0625c21.1875 0 38.4375-17.15625 38.4375-38.4375 0-21.1875-17.15625-38.4375-38.4375-38.4375h-62.0625c-21.1875 0.09375-38.4375 17.25-38.4375 38.4375z"  horiz-adv-x="1024" />
      
      <glyph glyph-name="yh" unicode="&#58894;" d="M905.525 158.6625c2.8125-8.4375 4.95-19.18125 6.3-32.34375 1.29375-13.10625 1.96875-2.5875 1.96875-15.75 0-13.10625-1.0125-25.5375-2.8125-37.35-1.96875-11.8125-4.95-20.64375-8.775-26.71875-2.8125-3.9375-10.9125-8.04375-24.1875-12.65625-13.21875-4.55625-151.3125-43.59375-345.54375-43.59375-177.525 0-330.4125 28.51875-354.7125 33.91875-24.35625 5.45625-38.86875 10.0125-44.04375 13.78125-6.24375 4.6125-10.9125 18.225-13.89375 41.00625-2.98125 22.95-1.8 28.6875 3.825 64.4625 3.4875 20.64375 11.925 36.39375 25.3125 46.85625 13.55625 10.6875 29.5875 19.0125 47.8125 25.0875 18.3375 6.1875 103.3875 35.26875 122.90625 40.33125 19.51875 5.0625 36.5625 12.31875 51.13125 21.825 11.925 7.2 21.0375 14.23125 27.45 20.98125 6.46875 6.75 11.08125 13.44375 13.55625 20.19375 2.53125 6.69375 3.825 13.55625 3.825 20.98125 0 7.2-0.3375 15.075-0.84375 23.625-1.125 13.3875-5.45625 23.7375-13.05 30.9375a424.0125 424.0125 0 0 1-25.81875 22.66875 49.78125 49.78125 0 0 0-11.925 16.36875 267.975 267.975 0 0 0-9.225 21.31875c-2.8125 8.38125-5.625 17.04375-8.4375 25.875a36.675 36.675 0 0 0-11.925 5.90625 71.8875 71.8875 0 0 0-11.08125 11.8125c-3.9375 5.0625-7.3125 12.31875-10.2375 21.825a61.9875 61.9875 0 0 0-2.8125 25.59375c0.7875 7.5375 2.25 14.0625 4.6125 19.6875 2.1375 6.1875 5.625 11.925 10.2375 17.6625a393.75 393.75 0 0 0 15.75 120.88125 186.1875 186.1875 0 0 0 25.81875 54.39375 165.9375 165.9375 0 0 0 35.8875 37.40625 186.24375 186.24375 0 0 0 81.225 34.875C497.54375 832.7625 510.875 834 524.0375 834c16.2 0 32.0625-1.96875 46.96875-5.90625 14.90625-3.9375 28.8-8.83125 41.85-15.075 12.9375-6.1875 24.6375-12.9375 34.59375-20.475 10.2375-7.59375 18.3375-15.3 24.6375-23.11875 14.0625-17.8875 24.6375-37.575 31.78125-59.0625 7.0875-21.4875 12.0375-41.625 14.68125-60.6375 3.4875-22.33125 4.8375-44.775 4.33125-67.10625 3.9375-2.08125 7.0875-5.56875 9.225-10.125 2.19375-3.9375 4.1625-8.8875 5.5125-15.075 1.29375-6.24375 1.4625-13.6125 0.28125-22.66875-1.63125-11.8125-4.44375-20.98125-7.875-28.0125a58.3875 58.3875 0 0 0-12.2625-16.425 41.0625 41.0625 0 0 0-16.0875-9.16875 296.55 296.55 0 0 0-7.59375-25.875 246.9375 246.9375 0 0 0-9.5625-21.375 58.3875 58.3875 0 0 0-12.2625-16.3125 130.66875 130.66875 0 0 0-14.4-11.3625c-4.6125-2.925-8.4375-6.1875-11.925-9.50625a39.99375 39.99375 0 0 1-8.4375-12.15c-2.1375-4.725-3.9375-10.4625-5.11875-17.2125-1.6875-8.325-2.1375-16.875-1.6875-25.5375 0.5625-8.55 2.8125-17.4375 6.80625-25.93125 3.9375-8.55 10.40625-16.875 19.51875-24.75 8.94375-7.875 21.20625-14.79375 36.39375-20.98125 14.0625-5.625 29.64375-10.51875 46.125-14.625 16.7625-4.275 83.8125-32.79375 99.16875-38.7 15.35625-5.90625 29.25-13.275 41.34375-22.10625 11.75625-9.84375 20.3625-21.4875 25.48125-36.05625z m-375.8625-113.9625c2.8125 0 7.0875 1.8 13.05 5.4a125.4375 125.4375 0 0 1 17.38125 12.9375c5.625 5.0625 10.575 10.125 14.68125 15.075 4.33125 5.0625 6.3 8.8875 6.3 11.8125 0 3.43125-0.7875 9.16875-2.475 17.71875-1.6875 8.38125-3.825 17.71875-5.9625 27.5625-2.1375 10.125-4.6125 19.96875-6.75 29.8125-2.19375 9.84375-4.33125 17.71875-5.9625 23.9625 5.625 4.55625 10.40625 9.3375 14.4 14.625a27.39375 27.39375 0 0 1 5.9625 16.3125 24.525 24.525 0 0 1-4.66875 13.8375 54 54 0 0 1-10.575 12.09375c-4.6125 3.9375-9.28125 7.875-14.4 11.8125h-42.1875c-5.625-3.9375-10.40625-7.875-14.4-11.8125a61.3125 61.3125 0 0 1-9.28125-11.8125 25.25625 25.25625 0 0 1-4.275-13.44375c0-3.375 1.96875-7.875 6.3-13.44375 4.275-5.56875 9.39375-10.96875 15.525-15.8625-1.6875-5.0625-3.9375-12.31875-6.75-21.825-2.8125-9.3375-5.45625-19.35-7.9875-29.8125-2.475-10.35-4.78125-20.25-6.75-29.3625-1.96875-9.225-2.8125-15.91875-2.8125-20.53125 0-2.8125 1.96875-6.75 6.3-11.8125a158.79375 158.79375 0 0 1 32.625-28.0125c5.7375-3.2625 10.0125-5.23125 12.7125-5.23125z"  horiz-adv-x="1024" />
      
      <glyph glyph-name="lishijilu" unicode="&#58999;" d="M822.203733 832.557511H194.1504c-33.132089 0-59.710578-26.942578-59.710578-59.710578v-777.693866c0-33.132089 26.942578-59.710578 59.710578-59.710578h353.8944a315.118933 315.118933 0 0 0-129.615644 254.134044 314.718436 314.718436 0 0 0 314.208711 314.208711c52.064711 0 103.765333-13.1072 149.640533-37.865244V772.846933c-0.364089 33.132089-27.306667 59.710578-60.074667 59.710578zM426.075022 404.388978h-124.882489c-21.845333 0-39.3216 17.476267-39.3216 39.3216 0 21.845333 17.476267 39.3216 39.3216 39.3216h124.882489c21.845333 0 39.3216-17.476267 39.3216-39.3216 0-21.481244-17.476267-39.3216-39.3216-39.3216z m280.712534 195.515733H309.202489c-26.2144 0-47.331556 21.117156-47.331556 47.331556 0 26.2144 21.117156 47.331556 47.331556 47.331555h397.585067c26.2144 0 47.331556-21.117156 47.331555-47.331555 0.364089-25.850311-21.117156-47.331556-47.331555-47.331556zM918.687289 369.436444a254.061227 254.061227 0 0 1-359.719822 0 254.061227 254.061227 0 0 1-74.638223-179.859911c-0.364089-67.356444 26.578489-132.164267 74.638223-179.859911a254.061227 254.061227 0 0 1 359.719822 0 254.061227 254.061227 0 0 1 0 359.719822z m-100.852622-263.964444c-10.194489-17.476267-32.768-23.665778-50.244267-13.471289l-69.905067 40.413867a36.190436 36.190436 0 0 0-17.840355 29.855289c0 1.092267-0.728178 2.184533-0.728178 3.640889v110.318933c0 20.388978 16.384 36.772978 36.772978 36.772978s36.772978-16.384 36.772978-36.772978v-90.658133l51.336533-29.855289c18.204444-10.194489 24.029867-32.768 13.835378-50.244267z"  horiz-adv-x="1024" />
      
      <glyph glyph-name="gengduo" unicode="&#59016;" d="M512 407.301689m-116.508444 0a1.820444 1.820444 0 1 1 233.016888 0 1.820444 1.820444 0 1 1-233.016888 0ZM162.474667 407.301689m-116.508445 0a1.820444 1.820444 0 1 1 233.016889 0 1.820444 1.820444 0 1 1-233.016889 0ZM861.525333 407.301689m-116.508444 0a1.820444 1.820444 0 1 1 233.016889 0 1.820444 1.820444 0 1 1-233.016889 0Z"  horiz-adv-x="1024" />
      
      <glyph glyph-name="gengduo1" unicode="&#58898;" d="M512 642.928367a103.583774 103.583774 0 1 1 0 207.105411 103.583774 103.583774 0 0 1 0-207.105411zM512 384m-103.583774 0a103.583774 103.583774 0 1 1 207.167548 0 103.583774 103.583774 0 1 1-207.167548 0ZM512-82.033778a103.583774 103.583774 0 1 1 0 207.167549 103.583774 103.583774 0 0 1 0-207.167549z"  horiz-adv-x="1024" />
      
      <glyph glyph-name="shuaxin1" unicode="&#58952;" d="M511.554657 862.492521C248.676846 862.492521 34.800939 648.616613 34.800939 385.738802s213.875907-476.754811 476.75481-476.754811 476.754811 213.875907 476.754811 476.754811S774.433561 862.492521 511.554657 862.492521zM508.801827 128.149437c-105.085633 0-194.632293 66.798154-229.089605 160.060371l0.349288 0.14299c-2.141575 4.306073-3.608587 8.984355-3.608586 14.119988 0 17.756955 14.393962 32.152007 32.152007 32.152008 14.282626 0 25.9827-9.468993 30.175254-22.352282l0.4508 0.184468c24.821315-69.80531 91.355319-120.003527 169.570842-120.003527 99.313641 0 180.101891 80.788251 180.101891 180.101891s-80.788251 180.101891-180.101891 180.101891c-21.794512 0-42.532426-4.246038-61.880826-11.380256l22.665549-43.459132c2.65241-2.856525 4.285333-6.701973 4.285334-10.926181 0-8.978898-8.964708-15.916641-16.390364-16.074912-0.109153 0-0.220489 0-0.329641 0-0.234678 0-0.456258 0-0.690936 0.01419l-160.618141 6.894082c-5.730515 0.249959-10.911991 3.531089-13.564401 8.632884-2.65241 5.087605-2.386077 11.209979 0.690937 16.059631l86.282995 135.658202c3.077013 4.835462 8.540105 7.628679 14.256429 7.424564 5.730515-0.249959 10.909808-3.533271 13.562218-8.635066l19.818849-38.000408c28.404797 11.578914 59.395421 18.094237 91.91309 18.094237 134.760967 0 244.405906-109.643849 244.405907-244.405906S643.562794 128.149437 508.801827 128.149437z"  horiz-adv-x="1024" />
      
      <glyph glyph-name="wendu" unicode="&#58937;" d="M512 888.869926a168.306157 168.306157 0 0 0 168.257612-168.306157v-356.078933l4.903064-3.883615a271.367586 271.367586 0 0 0 98.595271-202.579058l0.09709-7.039052a271.853037 271.853037 0 1 0-445.013713 209.569565l4.854519 3.93216V720.563769a168.306157 168.306157 0 0 0 163.257458 168.209067z m0-77.672296a90.633861 90.633861 0 0 1-90.633861-90.633861V660.222103h47.477191c21.06861 0 32.525274-9.709037 34.272901-29.03002l0.242726-5.485606c0-23.058963-11.505209-34.564172-34.515627-34.564171l-47.477191 0.048544v-86.313339h47.477191c21.06861 0 32.525274-9.709037 34.272901-29.030021l0.242726-5.485606c0-23.058963-11.505209-34.564172-34.515627-34.564172l-47.477191 0.048546v-91.022222a38.836148 38.836148 0 0 0-12.864473-28.93293l-4.369067-3.398164a194.180741 194.180741 0 1 1 215.686258 0 38.836148 38.836148 0 0 0-17.184996 32.331094V720.563769A90.633861 90.633861 0 0 1 512 811.19763z m-97.09037-601.960297a38.836148 38.836148 0 0 0 38.836148-39.127419l0.09709-3.495253a73.351774 73.351774 0 0 1 73.30323-69.565251v-77.672296l-4.854519 0.048545A151.024071 151.024071 0 0 0 376.073481 170.401186l0.097091 2.912711A38.836148 38.836148 0 0 0 414.90963 209.237333z"  horiz-adv-x="1024" />
      
      <glyph glyph-name="wuxinhao" unicode="&#59560;" d="M70.314667 761.423645a45.511111 45.511111 0 0 0 60.074666 68.130133l4.278045-3.777423 353.575822-353.53031a91.204267 91.204267 0 0 0 88.746667-23.30169 91.022222 91.022222 0 0 0 23.3472-88.746666l68.539733-68.630756 0.910222 1.365334c1.956978 3.458845 3.822933 6.9632 5.597867 10.513066l4.9152 10.877156a182.044445 182.044445 0 0 1-39.458134 198.428444 45.511111 45.511111 0 1 0 64.352712 64.352712 273.112178 273.112178 0 0 0 29.4912-351.345778l65.035378-64.989867a364.088889 364.088889 0 0 1-30.173867 480.688355 45.511111 45.511111 0 1 0 64.352711 64.352712 455.111111 455.111111 0 0 0 30.583466-609.848889l89.383823-89.383823a45.511111 45.511111 0 0 0-60.074667-68.130133l-4.278044 3.777423-819.2 819.2zM138.353778 557.943467a45.511111 45.511111 0 0 0 28.580977-57.662578 364.088889 364.088889 0 0 1 87.699912-373.737244A45.511111 45.511111 0 1 0 190.236445 62.236445 455.111111 455.111111 0 0 0 80.6912 529.316978a45.511111 45.511111 0 0 0 57.662578 28.626489z m193.513244-199.702756c5.461333-39.003022 23.529245-75.138845 51.427556-102.946133a45.511111 45.511111 0 1 0-64.261689-64.443733 272.065422 272.065422 0 0 0-77.323378 154.646755 45.511111 45.511111 0 1 0 90.112 12.743111z"  horiz-adv-x="1024" />
      
      <glyph glyph-name="wxh" unicode="&#58927;" d="M806.508929 790.205357c18.482143 20.089285 49.419643 20.892857 69.107142 2.410714 16.875-16.071429 49.419643-49.821429 81.160715-98.437499l10.848214 6.428571c26.919643 16.875 62.276785 7.633929 78.348214-19.6875 16.473214-27.321428 7.633929-62.276785-19.6875-78.75l-16.473214-10.044643c23.705357-59.866071 39.375-131.383929 36.160714-213.348215-8.4375-191.25-117.723214-317.410715-164.330357-362.410714-19.6875-19.285714-50.625-18.482143-69.508928 1.205358-19.285714 19.6875-18.482143 50.223214 1.205357 69.107143 38.169643 37.366071 127.767857 139.419643 134.196429 296.116071 2.410714 59.464286-8.035714 112.5-24.107143 157.901786l-76.741072-45.803572c9.642857-30.9375 15.669643-66.294643 14.0625-105.267857-4.821429-113.303571-69.508928-188.035714-97.232143-214.553572-19.6875-19.285714-50.223214-18.482143-69.508928 1.205357-18.883928 19.285714-18.482143 50.223214 1.205357 69.107144 19.285714 18.482143 63.482143 69.910714 67.098214 148.258928 0.803571 17.276786-0.803571 33.75-4.017857 49.017857l-0.803572-0.401785c-27.321428-16.473214-62.276785-7.633929-78.749999 19.687499-16.071429 26.919643-7.232143 62.276785 19.687499 78.348215l9.241072 5.223214c-6.830357 8.4375-12.455357 14.0625-15.267858 16.875-10.446428 10.044643-15.669643 22.5-15.669642 35.758928 0 12.455357 4.017857 24.508929 14.0625 33.75 18.482143 20.089285 49.419643 20.892857 69.107142 2.410715 7.232143-7.232143 19.6875-20.089285 33.348215-37.767857l78.75 47.008929c-27.321428 40.982143-53.839285 67.901786-63.883929 77.142857-10.446428 10.044643-15.669643 22.5-15.669643 35.758928 0 12.455357 4.017857 24.508929 14.062501 33.75z m-522.321429-371.25c-2.008928-39.375 4.017857-74.732143 13.660715-105.669642L221.107143 267.482143c-16.071429 45.803571-26.517857 98.839286-24.107143 157.901786 7.232143 155.892857 96.830357 258.75 135 296.116071 19.6875 18.883928 20.089285 49.419643 1.205357 69.107143A48.616072 48.616072 0 0 1 263.696429 791.8125C216.6875 746.8125 107.401786 621.455357 99.366071 429.401785c-3.214285-81.5625 12.455357-153.080357 35.758929-212.946428l-17.276786-10.446428c-26.919643-16.071429-35.758928-51.428571-19.6875-78.75 16.473214-27.723214 51.428571-36.160714 78.75-20.089286l11.250001 6.830357c32.142857-49.017857 64.285715-82.366072 81.160713-98.4375 19.6875-18.482143 51.026786-17.678571 69.508929 2.410715 9.241071 9.241071 13.258929 21.294643 13.258929 33.75 0 13.258929-5.223215 25.714286-15.669643 35.758928-10.044643 9.241071-36.5625 35.758928-63.482143 77.142857L351.285714 211.232143c13.660715-17.678571 25.714286-30.133929 33.348215-36.964286 19.6875-18.482143 51.026786-17.678571 69.508928 2.410714 9.241071 9.241071 14.0625 21.294643 14.0625 33.348214 0 13.660715-5.223215 26.116071-15.669643 36.160715-3.214285 2.410714-8.839286 8.035714-15.669643 16.473215l8.839286 5.223213c27.321428 16.071429 36.160714 51.428571 19.6875 78.750001-16.071429 26.919643-51.428571 35.758928-78.348214 19.6875l-0.803572-0.401786c-3.214285 14.866072-4.821429 31.339286-4.017856 49.017857 3.616071 77.946428 48.214286 129.776785 67.098214 148.258928 19.6875 18.883928 20.491071 49.419643 1.205357 69.107143-18.883928 19.6875-49.419643 20.491071-69.107143 1.205358-28.125-26.517857-92.8125-101.25-97.232143-214.553572z m362.410714-12.857142a79.754464 79.754464 0 1 0-159.508928 0.321428 79.754464 79.754464 0 0 0 159.508928-0.361607z"  horiz-adv-x="1170" />
      
      <glyph glyph-name="shuiya" unicode="&#60211;" d="M534.667883 469.41329l156.289088 156.289088a44.186906 44.186906 0 1 0 62.303538-62.303538l-155.97978-155.97978A88.462186 88.462186 0 0 0 512 295.626187a88.373813 88.373813 0 1 0 22.667883 173.787103zM909.682157 118.878562h-88.373813a44.186906 44.186906 0 0 0 0 88.373813h88.373813a44.186906 44.186906 0 0 0 0-88.373813z m-265.121438 0H114.317843a44.186906 44.186906 0 0 0 0 88.373813h530.242876a44.186906 44.186906 0 0 0 0-88.373813z m265.121438-176.747625H335.252375a44.186906 44.186906 0 0 0 0 88.373812h574.429782a44.186906 44.186906 0 0 0 0-88.373812zM202.691656-57.869063H114.317843a44.186906 44.186906 0 0 0 0 88.373812h88.373813a44.186906 44.186906 0 0 0 0-88.373812z m92.173886 720.86519l14.316558-14.316558a44.186906 44.186906 0 0 0-30.930835-75.117741 44.186906 44.186906 0 0 0-31.372703 12.814203l-14.228184 14.228184A351.727774 351.727774 0 0 1 161.244337 428.186906H202.691656a44.186906 44.186906 0 1 0 0-88.373812H114.317843a44.186906 44.186906 0 0 0-44.186906 44.186906c0 244.044284 197.82478 441.869063 441.869063 441.869063s441.869063-197.82478 441.869063-441.869063a44.186906 44.186906 0 0 0-44.186906-44.186906h-88.373813a44.186906 44.186906 0 0 0 0 88.373812h41.447319A353.671998 353.671998 0 0 1 556.186906 734.755663V693.308344a44.186906 44.186906 0 0 0-88.373812 0v41.447319a351.727774 351.727774 0 0 1-172.947552-71.759536z"  horiz-adv-x="1024" />
      
      <glyph glyph-name="mima" unicode="&#58920;" d="M240.146963 500.508444v116.508445a155.344593 155.344593 0 0 0 310.689185 0v-116.508445h77.672296v116.508445c0 128.644741-104.372148 233.016889-233.016888 233.016889s-233.016889-104.372148-233.016889-233.016889v-116.508445zM512 150.983111h-77.672296v77.672296l466.033777 466.033778 77.672297-77.672296-466.033778-466.033778zM550.836148 112.146963H395.491556V267.491556l194.18074 194.18074H123.638519a77.902886 77.902886 0 0 1-77.672297-77.672296v-388.361481a77.902886 77.902886 0 0 1 77.672297-77.672297h543.706074a77.902886 77.902886 0 0 1 77.672296 77.672297V306.327704z"  horiz-adv-x="1024" />
      
      <glyph glyph-name="mima1" unicode="&#58933;" d="M282.947368 572.631579V630.379789C282.947368 754.930526 385.670737 855.578947 512 855.578947c126.329263 0 229.052632-100.648421 229.052632-225.199158h-80.842106C660.210526 709.928421 594.027789 774.736842 512 774.736842s-148.210526-64.808421-148.210526-144.357053V572.631579H700.631579v-80.842105H161.684211v-485.052632h700.631578V357.052632h80.842106v-431.157895H80.842105V572.631579h202.105263z m247.754106-437.894737l-57.236211 57.128421 410.570105 411.405474 57.236211-57.101474L530.701474 134.736842z"  horiz-adv-x="1024" />
      
      <glyph glyph-name="hover" unicode="&#58911;" d="M508.778 869.772c-269.053 0-487.942-218.891-487.942-487.942s218.891-487.942 487.942-487.942 487.942 218.877 487.942 487.93-218.891 487.956-487.942 487.956zM687.241 126.43c-172.769 0-429.534 274.05-429.534 417.997 0 57.549 49.616 96.489 91.027 96.489 43.787 0 118.415-126.279 118.415-152.986 0-18.814-8.124-32.126-14.637-42.831-5.066-8.301-8.055-13.489-8.383-19.47 6.718-21.012 85.333-99.396 107.534-107.287 5.899 0.518 13.366 4.41 21.259 8.519 12.37 6.445 27.771 14.473 46.586 14.473 30.078 0 158.748-83.927 158.748-118.429 0.014-65.604-37.37-96.475-91.013-96.475z"  horiz-adv-x="1024" />
      
      <glyph glyph-name="bianji" unicode="&#58882;" d="M956.264608 730.981257L810.915105 814.928336l-41.933848-72.754135 145.309812-83.887541 41.973539 72.694597zM591.402425 211.878721c39.929438-23.080485 15.122382-45.506064 38.14333-5.636163L851.459757 550.28666c23.020948 39.929438 9.347299 36.019846-30.542447 59.060639-39.929438 23.080485-90.972437 64.359426-113.993385 24.410143L485.009923 289.71334c-23.040794-39.889746 66.502756-54.813671 106.392502-77.834619z m-159.281146-180.654906l155.70893 102.780595-72.238147 41.715546a114572.957001 114572.957001 0 0 1-72.297685 41.755237l-11.173098-186.251378z m460.061742 87.519294c0-60.707828-69.062845-129.770672-129.770673-129.770672H252.458655c-60.707828 0-129.770672 69.062845-129.770672 129.770672V628.696802c0 60.707828 69.062845 129.790518 129.770672 129.790519h419.874311V813.420067H287.585446C166.169791 813.420067 67.735392 714.985667 67.735392 593.570011v-439.719956c0-121.415656 98.434399-219.850055 219.850054-219.850055h439.719956c121.435501 0 219.850055 98.434399 219.850055 219.850055V373.719956h-54.972436v-254.976847z"  horiz-adv-x="1024" />
      
      <glyph glyph-name="dianhua" unicode="&#59565;" d="M437.216142 314.094933a579.872237 579.872237 0 0 0-93.206755 114.518093c77.126163 34.673399 127.588883 106.338228 127.588883 193.185564C471.586133 745.139769 372.007822 845.179259 249.067141 845.179259 122.94675 845.179259 26.548148 751.790459 26.548148 621.79859c0-180.054092 93.934933-373.822199 228.259461-500.233861 113.789914-107.090679 294.669274-184.022661 470.427117-198.622626 0.946631-0.084954 1.905399-0.121363 2.864166-0.121362h46.833967a34.721943 34.721943 0 0 1 0 69.456023h-45.365476c-160.053476 13.629061-325.434786 84.11667-427.185493 179.872048-121.071692 113.959822-206.401991 289.948254-206.401991 449.649778 0 91.143586 64.832094 153.924646 153.087242 153.924646 84.517168 0 153.087241-68.873481 153.087241-153.924646 0-68.618619-46.53056-122.867863-117.200213-140.344131a34.721943 34.721943 0 0 1-22.51283-49.67386c31.372326-60.657209 75.13581-118.814341 126.94566-168.039159 58.32704-55.402192 125.088806-97.97632 195.758459-123.062044a34.709808 34.709808 0 0 1 45.923745 27.379484c11.89357 76.337303 70.111383 129.737008 143.863656 129.737008 84.505031 0 153.087241-68.885618 153.087242-153.924647 0-29.102839-8.009956-56.91923-22.925464-81.070459a34.73408 34.73408 0 0 1 59.079491-36.493843A223.113671 223.113671 0 0 1 997.451852 143.871241c0 123.329043-99.590448 223.38067-222.518993 223.38067-94.517476 0-172.044137-59.601351-202.093606-146.618595-48.205369 22.245831-94.177659 54.091472-135.623111 93.461617z"  horiz-adv-x="1024" />
      
      <glyph glyph-name="shanchu" unicode="&#59574;" d="M182.044445 657.066667h-45.511112a34.133333 34.133333 0 0 0 0 68.266666h750.933334a34.133333 34.133333 0 0 0 0-68.266666H250.311111v-603.022222a56.888889 56.888889 0 0 1 56.888889-56.88889h409.6a56.888889 56.888889 0 0 1 56.888889 56.88889V554.666667a34.133333 34.133333 0 0 0 68.266666 0v-500.622222c0-69.12-56.035555-125.155555-125.155555-125.155556H307.2c-69.12 0-125.155555 56.035555-125.155555 125.155556V657.066667z m238.933333 113.777778a34.133333 34.133333 0 0 0 0 68.266666h182.044444a34.133333 34.133333 0 0 0 0-68.266666H420.977778z m-34.133333-307.2a34.133333 34.133333 0 0 0 68.266666 0v-273.066667a34.133333 34.133333 0 0 0-68.266666 0V463.644445z m182.044444 0a34.133333 34.133333 0 0 0 68.266666 0v-273.066667a34.133333 34.133333 0 0 0-68.266666 0V463.644445z"  horiz-adv-x="1024" />
      
      <glyph glyph-name="shanchu1" unicode="&#58908;" d="M908 671.60625H116c-29.7 0-54-24.3-54-54 0-29.7 24.3-54 54-54h72v-524.75625c0-37.125 30.375-67.5 67.5-67.5h513c37.125 0 67.5 30.375 67.5 67.5V563.60625h72c29.7 0 54 24.3 54 54 0 29.7-24.3 54-54 54zM382.175 100.33125c0-18.7875-15.3-34.0875-34.0875-34.0875-18.73125 0-34.0875 15.3-34.0875 34.0875V441.375c0 18.7875 15.35625 34.0875 34.0875 34.0875 9.39375 0 17.8875-3.825 24.075-10.0125a33.82875 33.82875 0 0 0 10.0125-24.075v-341.04375z m163.9125 0c0-18.7875-15.35625-34.0875-34.0875-34.0875-18.73125 0-34.0875 15.3-34.0875 34.0875V441.375c0 18.7875 15.35625 34.0875 34.0875 34.0875 9.3375 0 17.8875-3.825 24.075-10.0125a33.82875 33.82875 0 0 0 10.0125-24.075v-341.04375z m163.9125 0c0-18.7875-15.35625-34.0875-34.0875-34.0875-18.7875 0-34.0875 15.3-34.0875 34.0875V441.375c0 18.7875 15.3 34.0875 34.0875 34.0875 9.3375 0 17.8875-3.825 24.075-10.0125a33.82875 33.82875 0 0 0 10.0125-24.075v-341.04375zM443.0375 714.24375h137.925c22.66875 0 41.23125 18.5625 41.23125 41.23125s-18.5625 41.23125-41.23125 41.23125H443.0375c-22.66875 0-41.23125-18.5625-41.23125-41.23125s18.61875-41.23125 41.23125-41.23125z"  horiz-adv-x="1025" />
      
      <glyph glyph-name="bianji1" unicode="&#58888;" d="M672 768a32 32 0 1 0 0-64H192v-640h640V544a32 32 0 1 0 64 0V64a64 64 0 0 0-64-64H192a64 64 0 0 0-64 64V704a64 64 0 0 0 64 64h480z m0-384a32 32 0 1 0 0-64h-384a32 32 0 0 0 0 64h384z m278.656 438.656a32 32 0 0 0 3.648-40.832l-3.648-4.48-320-320a32 32 0 0 0-48.96 40.832l3.648 4.48 320 320a32 32 0 0 0 45.312 0zM480 576a32 32 0 0 0 0-64h-192a32 32 0 0 0 0 64h192z"  horiz-adv-x="1024" />
      
      <glyph glyph-name="a-bianji6" unicode="&#60084;" d="M865.28-64H158.72C106.56-64 64-21.44 64 30.72V737.28C64 789.44 106.56 832 158.72 832h307.04c17.6 0 32-14.4 32-32s-14.4-32-32-32H158.72C141.76 768 128 754.24 128 737.28v-706.4C128 13.76 141.76 0 158.72 0h706.4c16.96 0 30.72 13.76 30.72 30.72V337.76c0 17.6 14.4 32 32 32s32-14.4 32-32v-307.04C960-21.44 917.44-64 865.28-64zM276.48 313.28v-148.8c0-8.8 7.2-16 16-16h149.76c4.32 0 8.32 1.76 11.36 4.64L924.8 624.48a15.936 15.936 0 0 1 0 22.56l-149.44 149.44a15.936 15.936 0 0 1-22.56 0l-471.52-472c-3.2-2.88-4.8-6.88-4.8-11.2z"  horiz-adv-x="1024" />
      
      <glyph glyph-name="a-bianji5" unicode="&#60085;" d="M661.28 463.68c-12.48-12.48-28.8-18.72-45.28-18.72s-32.8 6.24-45.28 18.72a64.128 64.128 0 0 0 0 90.56l249.6 249.44c2.88 2.88 6.08 5.44 9.44 7.68A68.752 68.752 0 0 1 780.64 832H200.48C163.04 832 132.8 801.76 132.8 764.32v-760.8c0-37.28 30.24-67.68 67.68-67.68h581.6c37.28 0 67.68 30.24 67.68 67.68V651.84L661.28 463.68zM251.2 540.8h166.4c17.6 0 32-14.4 32-32s-14.4-32-32-32H251.2c-17.6 0-32 14.4-32 32s14.4 32 32 32z m249.6-272H251.2c-17.6 0-32 14.4-32 32s14.4 32 32 32h249.6a32 32 0 1 0 0-64zM614.72 476.96a32.064 32.064 0 0 0-22.56 54.72L841.44 780.96c12.48 12.48 32.8 12.48 45.28 0s12.48-32.8 0-45.28L637.28 486.24c-6.24-6.24-14.4-9.28-22.56-9.28z"  horiz-adv-x="1024" />
      
      <glyph glyph-name="gongsi" unicode="&#58966;" d="M723.286141 663.002991v200.997009h-246.460618A409.651047 409.651047 0 0 1 67.174477 454.348953v-547.477567H949.647058V489.284148z m-95.71286-660.418744H162.887338V454.348953A314.177467 314.177467 0 0 0 476.825523 768.287138h150.747758z m226.360917 0H727.353938V540.011964l127.537388-97.866401zM322.727817 326.811565h193.33998v-95.712861h-193.33998zM322.727817 522.544367h193.33998v-95.712862h-193.33998z"  horiz-adv-x="1024" />
      
      <glyph glyph-name="jia" unicode="&#58947;" d="M904.701195 452.566263H580.196343V777.071115c0 38.309868-31.050182 69.360051-69.360051 69.360051s-69.360051-31.050182-69.36005-69.360051v-324.504852H116.971391a69.360051 69.360051 0 0 1 0-138.720101h324.504851v-324.504851c0-38.309868 31.050182-69.360051 69.36005-69.360051s69.360051 31.050182 69.360051 69.360051V313.846162h324.497145a69.360051 69.360051 0 0 1 69.36005 69.36005 69.344638 69.344638 0 0 1-69.352343 69.360051z"  horiz-adv-x="1024" />
      
      <glyph glyph-name="you" unicode="&#58962;" d="M291.065468-79.962517c-11.046727 0-24.302798 4.418691-33.140179 13.256072-17.674763 17.674763-15.465417 46.396252 2.209345 61.861669L668.863517 384 260.134634 772.844776c-17.674763 17.674763-17.674763 44.186906-2.209345 61.861669 17.674763 17.674763 44.186906 17.674763 61.861668 2.209345l441.869064-419.77561c8.837381-8.837381 13.256072-19.884108 13.256072-33.14018 0-11.046727-4.418691-24.302798-13.256072-30.930834l-441.869064-419.775611c-6.628036-8.837381-17.674763-13.256072-28.721489-13.256072z"  horiz-adv-x="1024" />
      
      <glyph glyph-name="yonghu" unicode="&#58950;" d="M287.002644 534.003525c0 124.086042 100.903815 224.997356 224.989856 224.997356 124.086042 0 224.997356-100.911314 224.997357-224.997356 0-124.078542-100.911314-224.997356-224.997357-224.997357s-224.997356 100.918814-224.997356 224.997357m636.217524-552.848504c-36.869567 138.110877-134.068424 246.109608-256.12199 296.546515 86.653982 52.649381 144.898298 147.673265 144.898297 256.309489C811.981475 699.414082 677.395557 834 511.985001 834s-299.996475-134.585918-299.996476-299.996475c0-108.628724 58.236816-203.652607 144.935797-256.301989-122.061066-50.474407-219.259924-158.435639-256.15199-296.546515a37.48456 37.48456 0 0 1 26.549688-45.854461 37.537059 37.537059 0 0 1 45.92946 26.549688C216.053477 122.078365 355.326841 234.00705 512 234.00705s295.976522-111.936185 338.77102-272.171802a37.42456 37.42456 0 0 1 45.89946-26.549689 37.48456 37.48456 0 0 1 26.549688 45.861962"  horiz-adv-x="1024" />
      
      <glyph glyph-name="v" unicode="&#58880;" d="M56.642187 755.018438h404.106563v-34.043438c-24.319688-3.298125-41.318438-8.513438-50.55375-15.897187-9.424687-7.351875-14.139375-18.819375-14.139375-34.530938 0-22.277812 15.646875-69.597188 46.973438-141.923437 31.3275-72.218437 75.284063-162.721875 132.061874-271.439063 59.240625 131.461875 99.99375 226.25625 121.891875 284.369063 21.868125 58.268437 32.803125 98.205 32.803126 119.991562 0 18.177187-5.655 31.906875-16.760625 40.9125-11.32875 9.1875-29.98875 15.222188-56.225625 18.03375v34.528125h311.859375v-34.531875c-30.58875-2.292187-56.04-11.8125-76.605001-28.499062-20.360625-16.872187-43.955625-50.72625-70.362187-101.987813-35.475-69.735938-74.92125-152.07375-118.69125-247.19625-43.56-95.0925-88.101563-196.453125-133.362188-303.833437-21.194063-38.80125-88.305-40.122188-106.809375 0-24.510938 50.2425-58.08 119.348438-100.562812 207.735C210.205625 562.490625 110.036563 720.4875 62.125625 720.4875h-5.484375v34.530938z"  horiz-adv-x="1024" />
      
      <glyph glyph-name="caozuo" unicode="&#59095;" d="M809.472 489.984h-2.56c-16.896 0-31.232-5.12-44.544-13.312-11.776 34.304-41.984 59.392-80.896 59.392-16.896 0-33.28-5.12-47.104-13.312-11.776 34.304-41.984 59.392-80.896 59.392-15.36 0-29.184-3.584-41.472-10.24V660.48c0 48.128-36.352 87.552-85.504 87.552-48.64 0-88.064-39.424-88.064-87.552v-339.968l-53.76 53.248c-34.304 34.304-95.232 29.184-124.928 0-29.184-29.184-48.64-88.576-6.656-130.56l246.272-244.736c5.12-5.12 10.752-9.216 16.384-12.8 45.056-36.864 96.256-58.368 205.312-58.368 248.832 0 271.872 134.144 271.872 299.52v175.104c1.024 48.64-34.304 88.064-83.456 88.064z m38.4-262.656c0-139.776-0.512-253.44-225.28-253.44-95.232 0-152.064 20.992-195.584 64l-233.472 231.936c-20.48 20.48-15.36 47.104 1.536 64 16.896 16.896 48.128 17.408 64 1.024 0 0 40.96-40.448 76.288-75.776 26.624-26.624 50.176-49.664 50.176-49.664v441.856c0 23.04 18.944 41.472 41.984 41.472 23.04 0 38.912-18.432 38.912-41.472v-281.088h0.512c-0.512-1.536-0.512-3.072-0.512-4.608 0-12.8 10.24-23.04 23.04-23.04s23.04 10.24 23.04 23.04c0 1.536 0 3.072-0.512 4.608h0.512v115.2c0 23.04 16.896 41.472 39.936 41.472 0 0 40.96 0.512 40.96-41.472v-152.064h0.512c-0.512-1.536-0.512-3.072-0.512-4.608 0-12.8 10.24-23.04 23.04-23.04s23.04 10.24 23.04 23.04c0 1.536 0 3.072-0.512 4.608h0.512v105.984c0 23.04 16.384 41.472 39.424 41.472 0 0 41.984-2.56 41.984-41.472v-133.632h0.512c-0.512-1.536-0.512-3.072-0.512-4.608 0-12.8 10.24-23.04 23.04-23.04s22.528 10.24 22.528 23.04c0 1.536 0 3.072-0.512 4.608h0.512v91.136c0 23.04 17.408 41.472 40.448 41.472 0 0 40.448 1.536 40.448-41.472 0.512 0 0.512-132.608 0.512-169.472z m-543.232 302.592v77.312c-7.168 16.384-11.776 34.816-11.776 54.272 0 73.216 59.392 133.12 133.12 133.12 73.216 0 133.12-59.392 133.12-133.12 0-10.24-1.024-19.968-3.072-29.184 16.896-0.512 31.744-7.68 43.008-18.944 4.096 15.36 6.656 31.232 6.656 47.616 0 98.816-80.384 179.2-179.2 179.2s-179.2-80.384-179.2-179.2c-0.512-51.712 22.016-98.304 57.344-131.072z"  horiz-adv-x="1024" />
      
      <glyph glyph-name="tudidiya" unicode="&#58887;" d="M892.02533 422.364258H585.218384L550.356018 805.875h306.815186l34.854126-383.510742zM787.133362 729.162964H634.34375l20.912476-230.10315h152.773132L787.133362 729.162964z m111.879272-383.502503L933.875-37.875H627.059814l-34.862365 383.535461h306.815185z m-70.054321-76.712036H676.185181l20.895996-230.111389h152.797851l-20.920715 230.111389zM431.497681 422.364258L403.5979 729.162964H236.883118l-27.899781-306.798706H431.497681z m6.962585-76.703797H202.020752L174.120972 38.837036h292.239074l-27.89978 306.823425zM473.652222 805.875l76.703796-843.75H90.125L166.837036 805.875h306.815186z"  horiz-adv-x="1024" />
      
      <glyph glyph-name="czrizhi" unicode="&#58891;" d="M500.35625 435.827986l67.194375-368.98875a26.157187 26.157187 0 0 1 41.27625-17.470312l91.190625 64.89 131.507813-190.63875a26.550937 26.550937 0 0 1 37.437187-6.623438l11.519063 8.735625 13.438125 9.406875a27.184687 27.184687 0 0 1 6.72 38.012813L769.131875 163.789861l90.231562 64.21875a27.3 27.3 0 0 1-1.92 45.97875L539.7125 464.337361a26.521875 26.521875 0 0 1-39.35625-28.509375z m-2.879063-249.864375c-2.88 0-5.759062-0.192188-8.639062-0.192187-167.025 0-303.331875 138.61125-303.331875 308.995312S321.814062 803.857674 488.838125 803.857674c167.984062 0 304.290937-138.706875 304.290937-309.090938a316.108125 316.108125 0 0 0-21.118125-113.173125l58.555313-34.940625a380.278125 380.278125 0 0 1 29.75625 148.11375C860.323437 702.779236 693.299375 872.011111 488.839063 872.011111S118.312813 702.779236 118.312813 494.766736s166.064063-377.14875 370.525312-377.14875q10.078125 0 20.158125 0.576563z m52.795313 328.193438L701.9375 423.348924a238.95 238.95 0 0 1 9.6 98.390625 224.244375 224.244375 0 1 1-229.418438-254.759063l-31.678125 175.855313a67.193438 67.193438 0 0 0 99.831563 71.32125z"  horiz-adv-x="1024" />
      
      <glyph glyph-name="shezhi" unicode="&#58925;" d="M562.133333 808.746667v-69.12c0-39.573333 23.68-74.986667 60.48-90.133334l0.32-0.106666h0.106667c12.053333-5.013333 24.746667-7.573333 37.76-7.573334 26.026667 0 50.56 10.133333 68.906667 28.48l48.853333 48.853334 69.44-69.44-48.853333-48.853334c-28.053333-28.053333-36.266667-69.866667-21.013334-106.666666l0.213334-0.426667c15.146667-36.693333 50.56-60.48 90.133333-60.48H937.6v-98.133333h-69.12c-39.573333 0-74.986667-23.68-90.133333-60.48l-0.106667-0.32v-0.106667c-15.253333-36.8-7.04-78.613333 21.013333-106.666667l48.853334-48.853333-69.44-69.44-48.96 48.853333c-18.346667 18.346667-42.88 28.48-68.906667 28.48-13.013333 0-25.706667-2.56-37.76-7.573333l-0.426667-0.213333C585.92 103.786667 562.133333 68.373333 562.133333 28.8v-69.12h-98.133333V28.8c0 39.573333-23.68 74.986667-60.48 90.133333l-0.426667 0.213334c-12.053333 5.013333-24.746667 7.573333-37.76 7.573333-26.026667 0-50.56-10.133333-68.906666-28.48l-48.853334-48.853333-69.44 69.333333 48.853334 48.853333c28.053333 28.053333 36.266667 69.866667 21.013333 106.56v0.106667l-0.213333 0.426667c-15.146667 36.693333-50.56 60.48-90.133334 60.48H88.533333v98.133333h69.12c39.573333 0 74.986667 23.68 90.133334 60.48l0.213333 0.426667c15.253333 36.8 7.04 78.613333-21.013333 106.666666L178.133333 649.706667l69.44 69.44 48.853334-48.853334c18.346667-18.346667 42.88-28.48 68.906666-28.48 13.013333 0 25.706667 2.56 37.653334 7.573334l0.106666 0.106666 0.32 0.106667c36.693333 15.146667 60.48 50.56 60.48 90.133333v69.12H562.133333m53.333334 53.226667H410.666667v-122.453333c0-17.92-10.88-34.026667-27.52-40.853334-0.213333-0.106667-0.32-0.106667-0.533334-0.213333-5.546667-2.346667-11.413333-3.413333-17.28-3.413333-11.52 0-22.72 4.48-31.146666 12.906666L247.573333 794.666667 102.72 649.706667l86.613333-86.613334c12.693333-12.693333 16.32-31.786667 9.386667-48.426666-0.106667-0.213333-0.106667-0.32-0.213333-0.533334-6.826667-16.64-22.933333-27.52-40.853334-27.52H35.2v-204.8h122.453333c17.92 0 34.026667-10.88 40.853334-27.52 0.106667-0.213333 0.106667-0.32 0.213333-0.533333 6.933333-16.64 3.306667-35.733333-9.386667-48.426667l-86.613333-86.613333 144.853333-144.853333 86.613334 86.613333c8.426667 8.426667 19.733333 12.906667 31.146666 12.906667 5.76 0 11.626667-1.173333 17.28-3.413334 0.213333-0.106667 0.32-0.106667 0.533334-0.213333 16.64-6.826667 27.52-22.933333 27.52-40.853333v-122.453334h204.8V28.8c0 17.92 10.88 34.026667 27.52 40.853333 0.213333 0.106667 0.32 0.106667 0.533333 0.213334 5.546667 2.346667 11.413333 3.413333 17.28 3.413333 11.52 0 22.72-4.48 31.146667-12.906667l86.613333-86.613333 144.853333 144.853333-86.613333 86.613334c-12.693333 12.693333-16.32 31.786667-9.386667 48.426666 0.106667 0.213333 0.106667 0.32 0.213334 0.533334 6.826667 16.64 22.933333 27.52 40.853333 27.52H990.933333v204.8H868.48c-17.92 0-34.026667 10.88-40.853333 27.52-0.106667 0.213333-0.106667 0.32-0.213334 0.533333-6.933333 16.64-3.306667 35.733333 9.386667 48.426667l86.613333 86.613333-144.853333 144.96-86.613333-86.613333c-8.426667-8.426667-19.733333-12.906667-31.146667-12.906667-5.76 0-11.626667 1.173333-17.28 3.413333-0.213333 0.106667-0.32 0.106667-0.533333 0.213334-16.64 6.826667-27.52 22.933333-27.52 40.853333V862.08zM513.066667 535.253333c40.32 0 78.293333-15.68 106.773333-44.266666 28.48-28.48 44.266667-66.453333 44.266667-106.773334s-15.68-78.293333-44.266667-106.773333-66.453333-44.266667-106.773333-44.266667-78.293333 15.68-106.773334 44.266667c-28.48 28.48-44.266667 66.453333-44.266666 106.773333s15.68 78.293333 44.266666 106.773334c28.48 28.586667 66.453333 44.266667 106.773334 44.266666m0 53.333334c-112.853333 0-204.373333-91.52-204.373334-204.373334S400.213333 179.84 513.066667 179.84s204.373333 91.52 204.373333 204.373333S625.92 588.586667 513.066667 588.586667z"  horiz-adv-x="1024" />
      
      <glyph glyph-name="yunwei" unicode="&#58892;" d="M868.249664 683.999688a93.749961 93.749961 0 0 0 93.749961-93.749961v-562.499766a93.749961 93.749961 0 0 0-93.749961-93.749961H155.749961a93.749961 93.749961 0 0 0-93.749961 93.749961V590.249727a93.749961 93.749961 0 0 0 93.749961 93.749961z m0-74.999969H155.749961a18.749992 18.749992 0 0 1-18.749992-18.749992v-562.499766a18.749992 18.749992 0 0 1 18.749992-18.749992h712.499703a18.749992 18.749992 0 0 1 18.749993 18.749992V590.249727a18.749992 18.749992 0 0 1-18.749993 18.749992z m-264.50614-81.618716l0.88125-3.037499L653.768504 327.749836H774.499703a37.499984 37.499984 0 0 0 37.406234-34.687486L811.999688 290.249851a37.499984 37.499984 0 0 0-34.687486-37.406234L774.499703 252.749868h-149.999938a37.499984 37.499984 0 0 0-35.531234 25.499989l-0.84375 2.906248-25.03124 100.068709-90.524962-271.574888c-9.974996-29.962487-49.818729-34.612486-66.749973-9.018746l-1.593748 2.662499L321.181142 252.749868H249.499921a37.499984 37.499984 0 0 0-37.406234 34.687485L211.999938 290.249851a37.499984 37.499984 0 0 0 34.687485 37.406235L249.499921 327.749836h93.749962a37.499984 37.499984 0 0 0 31.143737-16.631243l1.631249-2.662499 52.349979-94.199961 104.306206 312.84362c11.512495 34.574985 59.962475 33.731236 71.06247 0.28125zM736.999719 833.999625a37.499984 37.499984 0 0 0 2.812499-74.906219L736.999719 758.999657H286.999906a37.499984 37.499984 0 0 0-2.812498 74.906218L286.999906 833.999625h449.999813z"  horiz-adv-x="1024" />
      
      <glyph glyph-name="lvli" unicode="&#59110;" d="M494.933333 179.2H358.4c-18.773333 0-34.133333-15.36-34.133333-34.133333s15.36-34.133333 34.133333-34.133334h136.533333c18.773333 0 34.133333 15.36 34.133334 34.133334s-15.36 34.133333-34.133334 34.133333z m170.666667 170.666667H358.4c-18.773333 0-34.133333-15.36-34.133333-34.133334s15.36-34.133333 34.133333-34.133333h307.2c18.773333 0 34.133333 15.36 34.133333 34.133333s-15.36 34.133333-34.133333 34.133334z m0 170.666666H358.4c-18.773333 0-34.133333-15.36-34.133333-34.133333s15.36-34.133333 34.133333-34.133333h307.2c18.773333 0 34.133333 15.36 34.133333 34.133333s-15.36 34.133333-34.133333 34.133333zM733.866667 776.533333h-23.893334c-13.653333 39.253333-51.2 68.266667-95.573333 68.266667H409.6c-44.373333 0-81.92-29.013333-95.573333-68.266667H290.133333c-93.866667 0-170.666667-76.8-170.666666-170.666666v-512c0-93.866667 76.8-170.666667 170.666666-170.666667h443.733334c93.866667 0 170.666667 76.8 170.666666 170.666667V605.866667c0 93.866667-76.8 170.666667-170.666666 170.666666z m-324.266667 0h204.8c18.773333 0 34.133333-15.36 34.133333-34.133333s-15.36-34.133333-34.133333-34.133333H409.6c-18.773333 0-34.133333 15.36-34.133333 34.133333s15.36 34.133333 34.133333 34.133333z m426.666667-682.666666c0-56.32-46.08-102.4-102.4-102.4H290.133333c-56.32 0-102.4 46.08-102.4 102.4V605.866667c0 56.32 46.08 102.4 102.4 102.4h23.893334c13.653333-39.253333 51.2-68.266667 95.573333-68.266667h204.8c44.373333 0 81.92 29.013333 95.573333 68.266667H733.866667c56.32 0 102.4-46.08 102.4-102.4v-512z"  horiz-adv-x="1024" />
      
      <glyph glyph-name="cz" unicode="&#59975;" d="M136.3 485.8h70v-150.2h-70zM206.3 44.7V162.2h-70v-117.5c0-40.7 31.5-73.9 70.2-73.9h206.1v70H207.5c-0.5 0.6-1.2 1.9-1.2 3.9zM206.3 757c0 2 0.7 3.3 1.1 3.9h619.8c0.5-0.6 1.1-1.8 1.1-3.9v-151.1h70V757c0 40.7-31.5 73.9-70.2 73.9H206.5c-38.7 0-70.2-33.1-70.2-73.9v-97.9h70V757zM93.9 607.5h154.8v-70H93.9zM93.9 283.9h154.8v-70H93.9zM924.2 149.9L805.6 268.5c13.5 36.2 17.5 75.1 11.6 113.9-7.4 48.4-29.6 92.4-64.3 127.1-34.7 34.7-78.7 57-127.1 64.3-47.4 7.2-95-0.4-137.6-22L445 530.1 579.1 396c7.7-7.7 7.7-20.6 0-28.2l-7.7-7.7c-3.7-3.7-8.7-5.8-14.1-5.8s-10.4 2.1-14.1 5.8L409.1 494.2l-21.8-43.1c-21.6-42.6-29.2-90.2-22-137.6 7.4-48.4 29.6-92.4 64.3-127.1 34.7-34.7 78.7-57 127.1-64.3 11.6-1.8 23.3-2.6 34.8-2.6 27 0 53.7 4.8 79.1 14.2L789.3 15c16.9-17 39.5-26.3 63.6-26.3s46.7 9.3 63.6 26.3l7.7 7.7c35.1 35 35.1 92.1 0 127.2z m-445 85.9c-36 36-51.9 85.9-45 134.3l59.5-59.5c35.1-35.1 92.2-35.1 127.2 0l7.7 7.7c35.1 35.1 35.1 92.1 0 127.2L569.1 505c48.4 6.9 98.3-8.9 134.3-45 48.6-48.6 60.4-122.4 29.4-183.7-7.5-14.9-17.4-28.6-29.4-40.5-1.5-1.5-3-3-4.6-4.4-10.8-10-22.9-18.4-36-25-61.2-31-135-19.2-183.6 29.4z m395.5-163.7l-7.7-7.7c-3.7-3.7-8.7-5.8-14.1-5.8s-10.4 2.1-14.1 5.8l-104.9 105c0.2 0.2 0.5 0.4 0.7 0.6 1.2 0.9 2.3 1.9 3.5 2.9 0.3 0.3 0.7 0.5 1 0.8 1.4 1.2 2.8 2.4 4.2 3.7 0.3 0.3 0.6 0.6 1 0.9l3.3 3c0.4 0.4 0.8 0.8 1.2 1.1 1.3 1.3 2.6 2.5 3.9 3.8l0.1 0.1 0.1 0.1c1.3 1.3 2.6 2.6 3.8 3.9 0.4 0.4 0.8 0.8 1.1 1.2l3 3.3c0.3 0.3 0.6 0.6 0.9 1 1.2 1.4 2.5 2.8 3.7 4.2 0.3 0.3 0.5 0.6 0.8 1 1 1.2 1.9 2.3 2.9 3.5 0.2 0.2 0.4 0.5 0.6 0.7l104.9-104.9c7.8-7.6 7.8-20.5 0.1-28.2z"  horiz-adv-x="1024" />
      
      <glyph glyph-name="weihu" unicode="&#58906;" d="M947.811556 424.177778c18.545778 0 33.521778-14.748444 33.521777-33.009778 0-62.421333-12.373333-122.88-36.878222-180.024889a460.515556 460.515556 0 0 0-100.565333-146.915555 468.451556 468.451556 0 0 0-149.191111-99.029334A472.177778 472.177778 0 0 0 512-71.111111a477.013333 477.013333 0 0 0-134.101333 19.2l-5.333334 1.635555-5.347555 1.649778a32.952889 32.952889 0 0 0-21.575111 41.585778c5.646222 17.322667 24.604444 26.808889 42.211555 21.248A407.836444 407.836444 0 0 1 486.968889-4.266667c8.263111-0.412444 16.64-0.711111 25.031111-0.711111 221.781333 0 402.289778 177.749333 402.289778 396.145778 0 18.261333 14.976 32.995556 33.521778 32.995556z m-634.225778-228.408889a29.724444 29.724444 0 0 1-41.486222 0l-41.486223-40.846222a28.643556 28.643556 0 0 1 0-40.860445 29.724444 29.724444 0 0 1 41.486223 0l41.486222 40.860445a28.643556 28.643556 0 0 1 0 40.846222zM512 853.333333c18.545778 0 33.521778-14.748444 33.521778-33.009777 0-18.261333-14.976-33.009778-33.521778-33.009778-8.391111 0-16.768-0.312889-25.031111-0.725334-210.062222-12.8-377.144889-185.287111-377.144889-395.420444 0-41.784889 6.485333-82.944 19.484444-122.254222 5.660444-17.336889-3.982222-35.896889-21.589333-41.571556-3.456-1.137778-6.912-1.649778-10.368-1.649778a33.464889 33.464889 0 0 0-31.857778 22.798223A453.632 453.632 0 0 0 42.666667 391.168c0 62.407111 12.373333 122.865778 36.878222 179.911111a460.515556 460.515556 0 0 0 100.565333 146.915556 468.906667 468.906667 0 0 0 149.290667 99.029333c15.928889 6.698667 32.156444 12.373333 48.611555 17.223111h-0.056888a473.543111 473.543111 0 0 0 124.231111 18.986667z m51.015111-248.519111l41.6-122.453333 105.073778-34.659556c2.304-18.474667 3.456-37.347556 3.456-56.533333l-0.028445 4.494222a457.841778 457.841778 0 0 1-3.427555 52.138667l19.271111-6.4 82.872889 81.607111a59.121778 59.121778 0 0 0 82.972444 0l0.611556-0.625778a57.329778 57.329778 0 0 0-0.611556-81.080889L728.647111 277.688889l-27.548444 9.073778-96.796445 31.872-249.230222-245.418667c-45.795556-45.084444-120.177778-45.084444-165.944889 0a114.375111 114.375111 0 0 0 0 163.413333L438.243556 482.133333l-41.486223 122.353778L542.293333 747.804444a464.981333 464.981333 0 0 0 68.650667-68.707555l-6.186667 7.495111a474.353778 474.353778 0 0 1-62.364444 61.297778L562.915556 768.142222a59.050667 59.050667 0 0 0 82.915555-0.056889l0.568889-0.568889a57.400889 57.400889 0 0 0-0.611556-81.194666l-22.954666-22.584889-59.818667-58.908445z"  horiz-adv-x="1024" />
      
      <glyph glyph-name="xiaoxi" unicode="&#59013;" d="M170.7008 256.6368V498.426667c0 188.1536 152.8032 340.6848 341.2992 340.6848s341.2992-152.5312 341.2992-340.6848v-241.789867l64.648533-129.080533c11.354667-22.6528-5.154133-49.300267-30.526933-49.300267H136.5792c-25.3728 0-41.870933 26.647467-30.526933 49.300267l64.648533 129.080533z m661.504-110.250667l-43.565867 86.971734a34.0192 34.0192 0 0 0-3.6064 15.2352V498.426667c0 150.528-122.2432 272.542933-273.032533 272.542933s-273.032533-122.016-273.032533-272.544v-249.8208a34.144 34.144 0 0 0-3.6064-15.246933l-43.565867-86.96h640.4096z m-472.8608-162.474666a34.0192 34.0192 0 0 0-4.4256 47.9808 34.167467 34.167467 0 0 0 48.059733 4.413866A169.984 169.984 0 0 1 512-2.957867a169.984 169.984 0 0 1 108.999467 39.253334 34.167467 34.167467 0 0 0 48.059733-4.414934 34.0192 34.0192 0 0 0-4.437333-47.979733A238.296533 238.296533 0 0 0 512-71.111467c-56.513067 0-110.08 19.684267-152.656 55.034667z"  horiz-adv-x="1024" />
      
      <glyph glyph-name="sousuo" unicode="&#59097;" d="M153.744765 422.409294a319.952478 319.952478 0 1 0 639.904955 8.47308 319.952478 319.952478 0 0 0-639.904955-8.47308z m796.094552-411.731674L793.799686 166.792233A410.456963 410.456963 0 0 1 729.614234 743.936415a410.681912 410.681912 0 0 1-577.14418-64.260435 410.531946 410.531946 0 0 1 577.819027-576.6193l155.964648-155.964647a44.989802 44.989802 0 0 1 65.235214 61.935961l-1.649626 1.649626z"  horiz-adv-x="1025" />
      
      <glyph glyph-name="gangshuifa" unicode="&#58919;" d="M914.133333 757.44s41.6-2.88 41.6-34.346667V635.733333s-2.88-35.84-41.6-35.84H743.68s-65.92-48.746667-121.813333-28.693333c0 0 1.386667-78.826667-31.573334-113.173333h-17.173333v-20.053334l164.8-7.146666s35.84-1.386667 32.96-32.96v-302.293334s0.746667-68.053333-37.226667-67.306666c0 0-37.226667 0.853333-44.373333 58.133333l-116.053333 0.533333s-70.186667-97.386667-146.133334-85.973333c0 0-123.2-1.386667-163.306666 67.306667l-12.906667 23.68-96.746667-0.64s2.773333-61.866667-32.32-61.866667c0 0-29.333333-9.813333-29.333333 62.506667V394.24s-5.76 40.853333 28.693333 40.106667h129.706667V564.053333h-64.426667s-28.693333 12.16-30.826666 53.013334c0 0 0 40.853333 30.08 40.853333h70.933333s53.76 37.973333 73.066667 99.626667h194.346666v-28.693334h85.12v28.693334H914.133333z"  horiz-adv-x="1024" />
      
      <glyph glyph-name="shangqing" unicode="&#60257;" d="M865.495251 74.691656c26.512144 0 44.186906-17.674763 44.186906-44.186907s-17.674763-44.186906-44.186906-44.186906H158.504749c-26.512144 0-44.186906 17.674763-44.186906 44.186906s17.674763 44.186906 44.186906 44.186907h706.990502z m0 176.747625c26.512144 0 44.186906-17.674763 44.186906-44.186906s-17.674763-44.186906-44.186906-44.186907h-88.373813c-26.512144 0-44.186906 17.674763-44.186906 44.186907s17.674763 44.186906 44.186906 44.186906h88.373813z m-309.308345 0c26.512144 0 44.186906-17.674763 44.186907-44.186906s-17.674763-44.186906-44.186907-44.186907h-88.373812c-26.512144 0-44.186906 17.674763-44.186907 44.186907s17.674763 44.186906 44.186907 44.186906h88.373812z m-309.308344 0c26.512144 0 44.186906-17.674763 44.186906-44.186906s-17.674763-44.186906-44.186906-44.186907H158.504749c-26.512144 0-44.186906 17.674763-44.186906 44.186907s17.674763 44.186906 44.186906 44.186906h88.373813z m-88.373813 176.747625c26.512144 0 44.186906-17.674763 44.186907-44.186906s-17.674763-44.186906-44.186907-44.186906-44.186906 17.674763-44.186906 44.186906 17.674763 44.186906 44.186906 44.186906z m176.747626 0c26.512144 0 44.186906-17.674763 44.186906-44.186906s-17.674763-44.186906-44.186906-44.186906-44.186906 17.674763-44.186907 44.186906 17.674763 44.186906 44.186907 44.186906z m176.747625 0c26.512144 0 44.186906-17.674763 44.186906-44.186906s-17.674763-44.186906-44.186906-44.186906-44.186906 17.674763-44.186906 44.186906 17.674763 44.186906 44.186906 44.186906z m176.747625 0c26.512144 0 44.186906-17.674763 44.186907-44.186906s-17.674763-44.186906-44.186907-44.186906-44.186906 17.674763-44.186906 44.186906 17.674763 44.186906 44.186906 44.186906z m176.747626 0c26.512144 0 44.186906-17.674763 44.186906-44.186906s-17.674763-44.186906-44.186906-44.186906-44.186906 17.674763-44.186907 44.186906 17.674763 44.186906 44.186907 44.186906z m-132.560719 353.495251c13.256072 0 26.512144-4.418691 35.349525-17.674762l132.560719-176.747626A44.186906 44.186906 0 0 0 865.495251 516.560719H158.504749a44.186906 44.186906 0 0 0-35.349525 70.69905l132.560719 176.747626c8.837381 13.256072 22.093453 17.674763 35.349525 17.674762h441.869064z m-22.093453-88.373813h-397.682158L246.878562 604.934532h530.242876l-66.280359 88.373812z"  horiz-adv-x="1024" />
      
      <glyph glyph-name="shuifak" unicode="&#59026;" d="M469.522963 596.385186v84.954073h-254.862222a42.477037 42.477037 0 0 0 0 84.954074h594.678518a42.477037 42.477037 0 0 0 0-84.954074h-254.862222v-84.954073h42.477037A42.477037 42.477037 0 0 0 639.431111 553.908148v-127.431111h49.758815A127.431111 127.431111 0 0 0 936.77037 384v-254.862222a127.431111 127.431111 0 0 0-247.580444-42.477037H334.810074A127.431111 127.431111 0 0 0 87.22963 129.137778V384a127.431111 127.431111 0 0 0 247.580444 42.477037h49.758815V553.908148a42.477037 42.477037 0 0 0 42.477037 42.477038h42.477037z m-42.477037-231.317808H342.091852v-216.511526h339.816296v216.511526z m-145.635556 22.573511a66.992356 66.992356 0 0 1-132.528356 0v-261.658548a66.992356 66.992356 0 0 1 132.528356 0z m167.723616 39.078874h126.702933V553.908148h-127.188386z m428.653984-36.651615a66.992356 66.992356 0 0 1-132.528356 0v-261.658548a66.992356 66.992356 0 0 1 132.528356 0z"  horiz-adv-x="1024" />
      
      </font>
</defs>
</svg>
